  0
SECTION
  2
HEADER
  9
$ACADVER
  1
AC1014
  9
$ACADMAINTVER
 70
     0
  9
$DWGCODEPAGE
  3
ANSI_1252
  9
$INSBASE
 10
0.0
 20
0.0
 30
0.0
  9
$EXTMIN
 10
0.0
 20
0.0
 30
0.0
  9
$EXTMAX
 10
188.373125
 20
107.4365
 30
0.0
  9
$LIMMIN
 10
0.0
 20
0.0
  9
$LIMMAX
 10
410.0
 20
287.0
  9
$ORTHOMODE
 70
     1
  9
$REGENMODE
 70
     1
  9
$FILLMODE
 70
     1
  9
$QTEXTMODE
 70
     0
  9
$MIRRTEXT
 70
     1
  9
$DRAGMODE
 70
     2
  9
$LTSCALE
 40
8.0
  9
$OSMODE
 70
    33
  9
$ATTMODE
 70
     1
  9
$TEXTSIZE
 40
3.0
  9
$TRACEWID
 40
1.0
  9
$TEXTSTYLE
  7
ROMANS
  9
$CLAYER
  8
0
  9
$CELTYPE
  6
BYLAYER
  9
$CECOLOR
 62
   256
  9
$CELTSCALE
 40
1.0
  9
$DELOBJ
 70
     1
  9
$DISPSILH
 70
     0
  9
$DIMSCALE
 40
1.0
  9
$DIMASZ
 40
3.0
  9
$DIMEXO
 40
2.0
  9
$DIMDLI
 40
10.0
  9
$DIMRND
 40
0.0
  9
$DIMDLE
 40
0.0
  9
$DIMEXE
 40
1.8
  9
$DIMTP
 40
0.0
  9
$DIMTM
 40
0.0
  9
$DIMTXT
 40
3.0
  9
$DIMCEN
 40
-1.0
  9
$DIMTSZ
 40
0.0
  9
$DIMTOL
 70
     0
  9
$DIMLIM
 70
     0
  9
$DIMTIH
 70
     0
  9
$DIMTOH
 70
     0
  9
$DIMSE1
 70
     0
  9
$DIMSE2
 70
     0
  9
$DIMTAD
 70
     3
  9
$DIMZIN
 70
     8
  9
$DIMBLK
  1

  9
$DIMASO
 70
     1
  9
$DIMSHO
 70
     0
  9
$DIMPOST
  1

  9
$DIMAPOST
  1

  9
$DIMALT
 70
     0
  9
$DIMALTD
 70
     2
  9
$DIMALTF
 40
25.4
  9
$DIMLFAC
 40
1.0
  9
$DIMTOFL
 70
     1
  9
$DIMTVP
 40
0.0
  9
$DIMTIX
 70
     0
  9
$DIMSOXD
 70
     0
  9
$DIMSAH
 70
     0
  9
$DIMBLK1
  1

  9
$DIMBLK2
  1

  9
$DIMSTYLE
  2
NIASA
  9
$DIMCLRD
 70
     0
  9
$DIMCLRE
 70
     0
  9
$DIMCLRT
 70
     0
  9
$DIMTFAC
 40
0.666667
  9
$DIMGAP
 40
1.5
  9
$DIMJUST
 70
     0
  9
$DIMSD1
 70
     0
  9
$DIMSD2
 70
     0
  9
$DIMTOLJ
 70
     1
  9
$DIMTZIN
 70
     8
  9
$DIMALTZ
 70
     0
  9
$DIMALTTZ
 70
     0
  9
$DIMFIT
 70
     3
  9
$DIMUPT
 70
     0
  9
$DIMUNIT
 70
     2
  9
$DIMDEC
 70
     2
  9
$DIMTDEC
 70
     2
  9
$DIMALTU
 70
     2
  9
$DIMALTTD
 70
     2
  9
$DIMTXSTY
  7
ROMANS
  9
$DIMAUNIT
 70
     0
  9
$LUNITS
 70
     2
  9
$LUPREC
 70
     2
  9
$SKETCHINC
 40
1.0
  9
$FILLETRAD
 40
0.0
  9
$AUNITS
 70
     0
  9
$AUPREC
 70
     0
  9
$MENU
  1
ACAD
  9
$ELEVATION
 40
0.0
  9
$PELEVATION
 40
0.0
  9
$THICKNESS
 40
0.0
  9
$LIMCHECK
 70
     0
  9
$BLIPMODE
 70
     0
  9
$CHAMFERA
 40
3.0
  9
$CHAMFERB
 40
3.0
  9
$CHAMFERC
 40
0.0
  9
$CHAMFERD
 40
0.0
  9
$SKPOLY
 70
     0
  9
$TDCREATE
 40
2450127.737943634
  9
$TDUPDATE
 40
2453206.472344108
  9
$TDINDWG
 40
0.1172630903
  9
$TDUSRTIMER
 40
0.1172630903
  9
$USRTIMER
 70
     1
  9
$ANGBASE
 50
0.0
  9
$ANGDIR
 70
     0
  9
$PDMODE
 70
     0
  9
$PDSIZE
 40
0.0
  9
$PLINEWID
 40
0.0
  9
$COORDS
 70
     2
  9
$SPLFRAME
 70
     0
  9
$SPLINETYPE
 70
     6
  9
$SPLINESEGS
 70
     8
  9
$ATTDIA
 70
     0
  9
$ATTREQ
 70
     1
  9
$HANDLING
 70
     1
  9
$HANDSEED
  5
1C31
  9
$SURFTAB1
 70
     6
  9
$SURFTAB2
 70
     6
  9
$SURFTYPE
 70
     6
  9
$SURFU
 70
     6
  9
$SURFV
 70
     6
  9
$UCSNAME
  2

  9
$UCSORG
 10
0.0
 20
0.0
 30
0.0
  9
$UCSXDIR
 10
1.0
 20
0.0
 30
0.0
  9
$UCSYDIR
 10
0.0
 20
1.0
 30
0.0
  9
$PUCSNAME
  2

  9
$PUCSORG
 10
0.0
 20
0.0
 30
0.0
  9
$PUCSXDIR
 10
1.0
 20
0.0
 30
0.0
  9
$PUCSYDIR
 10
0.0
 20
1.0
 30
0.0
  9
$USERI1
 70
     0
  9
$USERI2
 70
     0
  9
$USERI3
 70
     0
  9
$USERI4
 70
     0
  9
$USERI5
 70
     0
  9
$USERR1
 40
0.0
  9
$USERR2
 40
0.0
  9
$USERR3
 40
0.0
  9
$USERR4
 40
0.0
  9
$USERR5
 40
0.0
  9
$WORLDVIEW
 70
     1
  9
$SHADEDGE
 70
     3
  9
$SHADEDIF
 70
    70
  9
$TILEMODE
 70
     1
  9
$MAXACTVP
 70
    16
  9
$PINSBASE
 10
0.0
 20
0.0
 30
0.0
  9
$PLIMCHECK
 70
     0
  9
$PEXTMIN
 10
1.000000E+20
 20
1.000000E+20
 30
1.000000E+20
  9
$PEXTMAX
 10
-1.000000E+20
 20
-1.000000E+20
 30
-1.000000E+20
  9
$PLIMMIN
 10
0.0
 20
0.0
  9
$PLIMMAX
 10
12.0
 20
9.0
  9
$UNITMODE
 70
     0
  9
$VISRETAIN
 70
     0
  9
$PLINEGEN
 70
     0
  9
$PSLTSCALE
 70
     0
  9
$TREEDEPTH
 70
  3020
  9
$PICKSTYLE
 70
     1
  9
$CMLSTYLE
  2
STANDARD
  9
$CMLJUST
 70
     0
  9
$CMLSCALE
 40
1.0
  9
$PROXYGRAPHICS
 70
     1
  9
$MEASUREMENT
 70
     0
  0
ENDSEC
  0
SECTION
  2
CLASSES
  0
CLASS
  1
DICTIONARYVAR
  2
AcDbDictionaryVar
  3
"AutoCAD"
 90
        0
280
     0
281
     0
  0
CLASS
  1
LWPOLYLINE
  2
AcDbPolyline
  3
"AutoCAD"
 90
        0
280
     0
281
     1
  0
CLASS
  1
HATCH
  2
AcDbHatch
  3
"ACAD_SEDONA"
 90
        0
280
     0
281
     1
  0
ENDSEC
  0
SECTION
  2
TABLES
  0
TABLE
  2
VPORT
  5
B6E
100
AcDbSymbolTable
 70
     1
  0
VPORT
  5
1C2B
100
AcDbSymbolTableRecord
100
AcDbViewportTableRecord
  2
*ACTIVE
 70
     0
 10
0.0
 20
0.0
 11
1.0
 21
1.0
 12
91.098044
 22
54.754117
 13
0.0
 23
0.0
 14
0.5
 24
0.5
 15
10.0
 25
10.0
 16
0.0
 26
0.0
 36
1.0
 17
0.0
 27
0.0
 37
0.0
 40
154.49976
 41
1.47625
 42
50.0
 43
0.0
 44
0.0
 50
0.0
 51
0.0
 71
     0
 72
   100
 73
     1
 74
     0
 75
     0
 76
     0
 77
     0
 78
     0
  0
ENDTAB
  0
TABLE
  2
LTYPE
  5
B6B
100
AcDbSymbolTable
 70
     4
  0
LTYPE
  5
B77
100
AcDbSymbolTableRecord
100
AcDbLinetypeTableRecord
  2
BYBLOCK
 70
     0
  3

 72
    65
 73
     0
 40
0.0
  0
LTYPE
  5
B78
100
AcDbSymbolTableRecord
100
AcDbLinetypeTableRecord
  2
BYLAYER
 70
     0
  3

 72
    65
 73
     0
 40
0.0
  0
LTYPE
  5
B79
100
AcDbSymbolTableRecord
100
AcDbLinetypeTableRecord
  2
CONTINUOUS
 70
     0
  3
Solid line
 72
    65
 73
     0
 40
0.0
  0
LTYPE
  5
B92
100
AcDbSymbolTableRecord
100
AcDbLinetypeTableRecord
  2
TRAZO_Y_PUNTO2
 70
     0
  3
_._._._._._._._._._._._._._._._._._._._._._._._
 72
    65
 73
     4
 40
0.75
 49
0.5
 74
     0
 49
-0.125
 74
     0
 49
0.0
 74
     0
 49
-0.125
 74
     0
  0
LTYPE
  5
B94
100
AcDbSymbolTableRecord
100
AcDbLinetypeTableRecord
  2
TRAZOS
 70
     0
  3
__ __ __ __ __ __ __ __ __ __ __ __ __ __ __ __
 72
    65
 73
     2
 40
0.75
 49
0.5
 74
     0
 49
-0.25
 74
     0
  0
LTYPE
  5
1831
100
AcDbSymbolTableRecord
100
AcDbLinetypeTableRecord
  2
HIDDEN2
 70
     0
  3
_ _ _ _ _ _ _ _ _ _ _ _ _ _ _ _ _ _ _ _ _ _ _ _
 72
    65
 73
     2
 40
0.1875
 49
0.125
 74
     0
 49
-0.0625
 74
     0
  0
ENDTAB
  0
TABLE
  2
LAYER
  5
B68
100
AcDbSymbolTable
 70
    10
  0
LAYER
  5
B74
100
AcDbSymbolTableRecord
100
AcDbLayerTableRecord
  2
0
 70
     0
 62
     7
  6
CONTINUOUS
  0
LAYER
  5
BA8
100
AcDbSymbolTableRecord
100
AcDbLayerTableRecord
  2
EJES
 70
     0
 62
     3
  6
TRAZO_Y_PUNTO2
  0
LAYER
  5
BA9
100
AcDbSymbolTableRecord
100
AcDbLayerTableRecord
  2
COTAS
 70
     0
 62
     2
  6
CONTINUOUS
  0
LAYER
  5
BAA
100
AcDbSymbolTableRecord
100
AcDbLayerTableRecord
  2
NIASA
 70
     0
 62
     5
  6
CONTINUOUS
  0
LAYER
  5
BAB
100
AcDbSymbolTableRecord
100
AcDbLayerTableRecord
  2
RAYADO
 70
     0
 62
     4
  6
CONTINUOUS
  0
LAYER
  5
BAC
100
AcDbSymbolTableRecord
100
AcDbLayerTableRecord
  2
NEFF
 70
     0
 62
     6
  6
CONTINUOUS
  0
LAYER
  5
BAF
100
AcDbSymbolTableRecord
100
AcDbLayerTableRecord
  2
TRAZOS
 70
     0
 62
     9
  6
TRAZOS
  0
LAYER
  5
BD6
100
AcDbSymbolTableRecord
100
AcDbLayerTableRecord
  2
FORMATO_A4
 70
     0
 62
     7
  6
CONTINUOUS
  0
LAYER
  5
C6D
100
AcDbSymbolTableRecord
100
AcDbLayerTableRecord
  2
DEFPOINTS
 70
     0
 62
     7
  6
CONTINUOUS
  0
LAYER
  5
1054
100
AcDbSymbolTableRecord
100
AcDbLayerTableRecord
  2
AME_FRZ
 70
     0
 62
     7
  6
CONTINUOUS
  0
ENDTAB
  0
TABLE
  2
STYLE
  5
B69
100
AcDbSymbolTable
 70
     3
  0
STYLE
  5
B75
100
AcDbSymbolTableRecord
100
AcDbTextStyleTableRecord
  2
STANDARD
 70
     0
 40
0.0
 41
1.0
 50
0.0
 71
     0
 42
3.5
  3
txt.shx
  4

  0
STYLE
  5
B87
100
AcDbSymbolTableRecord
100
AcDbTextStyleTableRecord
  2
ITALICT
 70
     0
 40
4.0
 41
1.0
 50
10.0
 71
     0
 42
4.0
  3
italict
  4

  0
STYLE
  5
B89
100
AcDbSymbolTableRecord
100
AcDbTextStyleTableRecord
  2
ROMANS
 70
     0
 40
3.0
 41
1.0
 50
0.0
 71
     0
 42
3.0
  3
romans
  4

  0
ENDTAB
  0
TABLE
  2
VIEW
  5
B6C
100
AcDbSymbolTable
 70
     0
  0
ENDTAB
  0
TABLE
  2
UCS
  5
B6D
100
AcDbSymbolTable
 70
     0
  0
ENDTAB
  0
TABLE
  2
APPID
  5
B6F
100
AcDbSymbolTable
 70
     3
  0
APPID
  5
B76
100
AcDbSymbolTableRecord
100
AcDbRegAppTableRecord
  2
ACAD
 70
     0
  0
APPID
  5
BA5
100
AcDbSymbolTableRecord
100
AcDbRegAppTableRecord
  2
AVE_RENDER
 70
     0
  0
APPID
  5
BA6
100
AcDbSymbolTableRecord
100
AcDbRegAppTableRecord
  2
AME_SOL
 70
     0
  0
ENDTAB
  0
TABLE
  2
DIMSTYLE
  5
B70
100
AcDbSymbolTable
 70
     1
  0
DIMSTYLE
105
BA7
102
{ACAD_REACTORS
330
1914
330
1920
330
1921
330
1922
330
1923
330
1926
330
1931
330
1950
330
1977
330
1979
330
198A
330
198B
330
198C
330
198D
330
1995
330
199D
330
199E
330
19B5
330
19B8
330
19BB
330
19C5
330
19DA
330
19DC
102
}
100
AcDbSymbolTableRecord
100
AcDbDimStyleTableRecord
  2
NIASA
 70
     0
  3

  4

  5

  6

  7

 40
1.0
 41
3.0
 42
2.0
 43
10.0
 44
1.8
 45
0.0
 46
0.0
 47
0.0
 48
0.0
140
3.0
141
-1.0
142
0.0
143
25.4
144
1.0
145
0.0
146
0.666667
147
2.0
 71
     0
 72
     0
 73
     0
 74
     0
 75
     0
 76
     0
 77
     1
 78
     0
170
     0
171
     2
172
     1
173
     0
174
     0
175
     0
176
     0
177
     0
178
     0
270
     2
271
     2
272
     2
273
     2
274
     2
340
B89
275
     0
280
     0
281
     0
282
     0
283
     1
284
     0
285
     0
286
     0
287
     5
288
     0
  0
ENDTAB
  0
TABLE
  2
BLOCK_RECORD
  5
B67
100
AcDbSymbolTable
 70
    70
  0
BLOCK_RECORD
  5
B7D
100
AcDbSymbolTableRecord
100
AcDbBlockTableRecord
  2
*MODEL_SPACE
  0
BLOCK_RECORD
  5
B7A
100
AcDbSymbolTableRecord
100
AcDbBlockTableRecord
  2
*PAPER_SPACE
  0
BLOCK_RECORD
  5
BE3
100
AcDbSymbolTableRecord
100
AcDbBlockTableRecord
  2
*D0
  0
BLOCK_RECORD
  5
BEF
100
AcDbSymbolTableRecord
100
AcDbBlockTableRecord
  2
*D1
  0
BLOCK_RECORD
  5
BFB
100
AcDbSymbolTableRecord
100
AcDbBlockTableRecord
  2
*D2
  0
BLOCK_RECORD
  5
C0A
100
AcDbSymbolTableRecord
100
AcDbBlockTableRecord
  2
*D3
  0
BLOCK_RECORD
  5
C16
100
AcDbSymbolTableRecord
100
AcDbBlockTableRecord
  2
*D4
  0
BLOCK_RECORD
  5
C25
100
AcDbSymbolTableRecord
100
AcDbBlockTableRecord
  2
*D5
  0
BLOCK_RECORD
  5
C34
100
AcDbSymbolTableRecord
100
AcDbBlockTableRecord
  2
*D6
  0
BLOCK_RECORD
  5
C43
100
AcDbSymbolTableRecord
100
AcDbBlockTableRecord
  2
*D7
  0
BLOCK_RECORD
  5
C52
100
AcDbSymbolTableRecord
100
AcDbBlockTableRecord
  2
*D8
  0
BLOCK_RECORD
  5
C61
100
AcDbSymbolTableRecord
100
AcDbBlockTableRecord
  2
*D9
  0
BLOCK_RECORD
  5
C6E
100
AcDbSymbolTableRecord
100
AcDbBlockTableRecord
  2
A$C094F77C8
  0
BLOCK_RECORD
  5
FCC
100
AcDbSymbolTableRecord
100
AcDbBlockTableRecord
  2
*D11
  0
BLOCK_RECORD
  5
FD8
100
AcDbSymbolTableRecord
100
AcDbBlockTableRecord
  2
*D12
  0
BLOCK_RECORD
  5
FE4
100
AcDbSymbolTableRecord
100
AcDbBlockTableRecord
  2
*D13
  0
BLOCK_RECORD
  5
FF0
100
AcDbSymbolTableRecord
100
AcDbBlockTableRecord
  2
*D14
  0
BLOCK_RECORD
  5
FFC
100
AcDbSymbolTableRecord
100
AcDbBlockTableRecord
  2
*D15
  0
BLOCK_RECORD
  5
1008
100
AcDbSymbolTableRecord
100
AcDbBlockTableRecord
  2
*D16
  0
BLOCK_RECORD
  5
1016
100
AcDbSymbolTableRecord
100
AcDbBlockTableRecord
  2
*D17
  0
BLOCK_RECORD
  5
1024
100
AcDbSymbolTableRecord
100
AcDbBlockTableRecord
  2
*D18
  0
BLOCK_RECORD
  5
1030
100
AcDbSymbolTableRecord
100
AcDbBlockTableRecord
  2
*D19
  0
BLOCK_RECORD
  5
103C
100
AcDbSymbolTableRecord
100
AcDbBlockTableRecord
  2
*D20
  0
BLOCK_RECORD
  5
1046
100
AcDbSymbolTableRecord
100
AcDbBlockTableRecord
  2
*D21
  0
BLOCK_RECORD
  5
1055
100
AcDbSymbolTableRecord
100
AcDbBlockTableRecord
  2
A$C582166C3
  0
BLOCK_RECORD
  5
1717
100
AcDbSymbolTableRecord
100
AcDbBlockTableRecord
  2
*D23
  0
BLOCK_RECORD
  5
1723
100
AcDbSymbolTableRecord
100
AcDbBlockTableRecord
  2
*D24
  0
BLOCK_RECORD
  5
172F
100
AcDbSymbolTableRecord
100
AcDbBlockTableRecord
  2
*D25
  0
BLOCK_RECORD
  5
173B
100
AcDbSymbolTableRecord
100
AcDbBlockTableRecord
  2
*D26
  0
BLOCK_RECORD
  5
1747
100
AcDbSymbolTableRecord
100
AcDbBlockTableRecord
  2
*D27
  0
BLOCK_RECORD
  5
1755
100
AcDbSymbolTableRecord
100
AcDbBlockTableRecord
  2
*D28
  0
BLOCK_RECORD
  5
1761
100
AcDbSymbolTableRecord
100
AcDbBlockTableRecord
  2
*D29
  0
BLOCK_RECORD
  5
176D
100
AcDbSymbolTableRecord
100
AcDbBlockTableRecord
  2
*D30
  0
BLOCK_RECORD
  5
1779
100
AcDbSymbolTableRecord
100
AcDbBlockTableRecord
  2
*D31
  0
BLOCK_RECORD
  5
1786
100
AcDbSymbolTableRecord
100
AcDbBlockTableRecord
  2
*D32
  0
BLOCK_RECORD
  5
1792
100
AcDbSymbolTableRecord
100
AcDbBlockTableRecord
  2
*D33
  0
BLOCK_RECORD
  5
179D
100
AcDbSymbolTableRecord
100
AcDbBlockTableRecord
  2
*D34
  0
BLOCK_RECORD
  5
17A8
100
AcDbSymbolTableRecord
100
AcDbBlockTableRecord
  2
*D35
  0
BLOCK_RECORD
  5
17B4
100
AcDbSymbolTableRecord
100
AcDbBlockTableRecord
  2
*D36
  0
BLOCK_RECORD
  5
17C0
100
AcDbSymbolTableRecord
100
AcDbBlockTableRecord
  2
*D37
  0
BLOCK_RECORD
  5
17CC
100
AcDbSymbolTableRecord
100
AcDbBlockTableRecord
  2
*D38
  0
BLOCK_RECORD
  5
17D9
100
AcDbSymbolTableRecord
100
AcDbBlockTableRecord
  2
*D39
  0
BLOCK_RECORD
  5
17E5
100
AcDbSymbolTableRecord
100
AcDbBlockTableRecord
  2
*D40
  0
BLOCK_RECORD
  5
17F3
100
AcDbSymbolTableRecord
100
AcDbBlockTableRecord
  2
*D41
  0
BLOCK_RECORD
  5
17FF
100
AcDbSymbolTableRecord
100
AcDbBlockTableRecord
  2
*D42
  0
BLOCK_RECORD
  5
180A
100
AcDbSymbolTableRecord
100
AcDbBlockTableRecord
  2
*D43
  0
BLOCK_RECORD
  5
1816
100
AcDbSymbolTableRecord
100
AcDbBlockTableRecord
  2
*D44
  0
BLOCK_RECORD
  5
1823
100
AcDbSymbolTableRecord
100
AcDbBlockTableRecord
  2
*D45
  0
BLOCK_RECORD
  5
1832
100
AcDbSymbolTableRecord
100
AcDbBlockTableRecord
  2
A$C7E135AB9
  0
BLOCK_RECORD
  5
19EA
100
AcDbSymbolTableRecord
100
AcDbBlockTableRecord
  2
*D47
  0
BLOCK_RECORD
  5
19F6
100
AcDbSymbolTableRecord
100
AcDbBlockTableRecord
  2
*D48
  0
BLOCK_RECORD
  5
1A02
100
AcDbSymbolTableRecord
100
AcDbBlockTableRecord
  2
*D49
  0
BLOCK_RECORD
  5
1A0E
100
AcDbSymbolTableRecord
100
AcDbBlockTableRecord
  2
*D50
  0
BLOCK_RECORD
  5
1A19
100
AcDbSymbolTableRecord
100
AcDbBlockTableRecord
  2
*D51
  0
BLOCK_RECORD
  5
1A24
100
AcDbSymbolTableRecord
100
AcDbBlockTableRecord
  2
*D52
  0
BLOCK_RECORD
  5
1A30
100
AcDbSymbolTableRecord
100
AcDbBlockTableRecord
  2
*D53
  0
BLOCK_RECORD
  5
1A3C
100
AcDbSymbolTableRecord
100
AcDbBlockTableRecord
  2
*D54
  0
BLOCK_RECORD
  5
1A49
100
AcDbSymbolTableRecord
100
AcDbBlockTableRecord
  2
*D55
  0
BLOCK_RECORD
  5
1A57
100
AcDbSymbolTableRecord
100
AcDbBlockTableRecord
  2
*D56
  0
BLOCK_RECORD
  5
1A63
100
AcDbSymbolTableRecord
100
AcDbBlockTableRecord
  2
*D57
  0
BLOCK_RECORD
  5
1A71
100
AcDbSymbolTableRecord
100
AcDbBlockTableRecord
  2
*D58
  0
BLOCK_RECORD
  5
1A7E
100
AcDbSymbolTableRecord
100
AcDbBlockTableRecord
  2
*D59
  0
BLOCK_RECORD
  5
1A8A
100
AcDbSymbolTableRecord
100
AcDbBlockTableRecord
  2
*D60
  0
BLOCK_RECORD
  5
1A96
100
AcDbSymbolTableRecord
100
AcDbBlockTableRecord
  2
*D61
  0
BLOCK_RECORD
  5
1AA3
100
AcDbSymbolTableRecord
100
AcDbBlockTableRecord
  2
*D62
  0
BLOCK_RECORD
  5
1AAF
100
AcDbSymbolTableRecord
100
AcDbBlockTableRecord
  2
*D63
  0
BLOCK_RECORD
  5
1ABB
100
AcDbSymbolTableRecord
100
AcDbBlockTableRecord
  2
*D64
  0
BLOCK_RECORD
  5
1AC7
100
AcDbSymbolTableRecord
100
AcDbBlockTableRecord
  2
*D65
  0
BLOCK_RECORD
  5
1AD2
100
AcDbSymbolTableRecord
100
AcDbBlockTableRecord
  2
*D66
  0
BLOCK_RECORD
  5
1ADE
100
AcDbSymbolTableRecord
100
AcDbBlockTableRecord
  2
*D67
  0
BLOCK_RECORD
  5
1AEA
100
AcDbSymbolTableRecord
100
AcDbBlockTableRecord
  2
*D68
  0
BLOCK_RECORD
  5
1AF8
100
AcDbSymbolTableRecord
100
AcDbBlockTableRecord
  2
*D69
  0
ENDTAB
  0
ENDSEC
  0
SECTION
  2
BLOCKS
  0
BLOCK
  5
BB3
100
AcDbEntity
  8
0
100
AcDbBlockBegin
  2
*MODEL_SPACE
 70
     0
 10
0.0
 20
0.0
 30
0.0
  3
*MODEL_SPACE
  1

  0
ENDBLK
  5
BB4
100
AcDbEntity
  8
0
100
AcDbBlockEnd
  0
BLOCK
  5
BB1
100
AcDbEntity
 67
     1
  8
0
100
AcDbBlockBegin
  2
*PAPER_SPACE
 70
     0
 10
0.0
 20
0.0
 30
0.0
  3
*PAPER_SPACE
  1

  0
ENDBLK
  5
BB2
100
AcDbEntity
 67
     1
  8
0
100
AcDbBlockEnd
  0
BLOCK
  5
BED
100
AcDbEntity
  8
0
100
AcDbBlockBegin
  2
*D0
 70
     1
 10
0.0
 20
0.0
 30
0.0
  3
*D0
  1
AVE_RENDER
  0
LINE
  5
BE4
100
AcDbEntity
  8
0
  6
BYBLOCK
 62
     0
100
AcDbLine
 10
144.5
 20
153.5
 30
0.0
 11
180.332
 21
153.5
 31
0.0
  0
LINE
  5
BE5
100
AcDbEntity
  8
0
  6
BYBLOCK
 62
     0
100
AcDbLine
 10
147.0
 20
209.5
 30
0.0
 11
180.332
 21
209.5
 31
0.0
  0
LINE
  5
BE6
100
AcDbEntity
  8
0
  6
BYBLOCK
 62
     0
100
AcDbLine
 10
178.532
 20
156.5
 30
0.0
 11
178.532
 21
206.5
 31
0.0
  0
SOLID
  5
BE7
100
AcDbEntity
  8
0
  6
BYBLOCK
 62
     0
100
AcDbTrace
 10
178.032
 20
156.5
 30
0.0
 11
179.032
 21
156.5
 31
0.0
 12
178.532
 22
153.5
 32
0.0
 13
178.532
 23
153.5
 33
0.0
  0
SOLID
  5
BE8
100
AcDbEntity
  8
0
  6
BYBLOCK
 62
     0
100
AcDbTrace
 10
178.032
 20
206.5
 30
0.0
 11
179.032
 21
206.5
 31
0.0
 12
178.532
 22
209.5
 32
0.0
 13
178.532
 23
209.5
 33
0.0
  0
TEXT
  5
BE9
100
AcDbEntity
  8
0
  6
BYBLOCK
 62
     0
100
AcDbText
 10
177.032
 20
178.642857
 30
0.0
 40
3.0
  1
56
 50
90.0
  7
ROMANS
 72
     1
 11
175.532
 21
181.5
 31
0.0
100
AcDbText
 73
     2
  0
POINT
  5
BEA
100
AcDbEntity
  8
DEFPOINTS
  6
BYBLOCK
 62
     0
100
AcDbPoint
 10
142.5
 20
153.5
 30
0.0
  0
POINT
  5
BEB
100
AcDbEntity
  8
DEFPOINTS
  6
BYBLOCK
 62
     0
100
AcDbPoint
 10
145.0
 20
209.5
 30
0.0
  0
POINT
  5
BEC
100
AcDbEntity
  8
DEFPOINTS
  6
BYBLOCK
 62
     0
100
AcDbPoint
 10
178.532
 20
209.5
 30
0.0
  0
ENDBLK
  5
BEE
100
AcDbEntity
  8
0
100
AcDbBlockEnd
  0
BLOCK
  5
BF9
100
AcDbEntity
  8
0
100
AcDbBlockBegin
  2
*D1
 70
     1
 10
0.0
 20
0.0
 30
0.0
  3
*D1
  1
AVE_RENDER
  0
LINE
  5
BF0
100
AcDbEntity
  8
0
  6
BYBLOCK
 62
     0
100
AcDbLine
 10
150.511107
 20
184.5
 30
0.0
 11
162.146
 21
184.5
 31
0.0
  0
LINE
  5
BF1
100
AcDbEntity
  8
0
  6
BYBLOCK
 62
     0
100
AcDbLine
 10
150.511107
 20
209.5
 30
0.0
 11
162.146
 21
209.5
 31
0.0
  0
LINE
  5
BF2
100
AcDbEntity
  8
0
  6
BYBLOCK
 62
     0
100
AcDbLine
 10
160.346
 20
187.5
 30
0.0
 11
160.346
 21
206.5
 31
0.0
  0
SOLID
  5
BF3
100
AcDbEntity
  8
0
  6
BYBLOCK
 62
     0
100
AcDbTrace
 10
159.846
 20
187.5
 30
0.0
 11
160.846
 21
187.5
 31
0.0
 12
160.346
 22
184.5
 32
0.0
 13
160.346
 23
184.5
 33
0.0
  0
SOLID
  5
BF4
100
AcDbEntity
  8
0
  6
BYBLOCK
 62
     0
100
AcDbTrace
 10
159.846
 20
206.5
 30
0.0
 11
160.846
 21
206.5
 31
0.0
 12
160.346
 22
209.5
 32
0.0
 13
160.346
 23
209.5
 33
0.0
  0
TEXT
  5
BF5
100
AcDbEntity
  8
0
  6
BYBLOCK
 62
     0
100
AcDbText
 10
158.846
 20
194.142857
 30
0.0
 40
3.0
  1
25
 50
90.0
  7
ROMANS
 72
     1
 11
157.346
 21
197.0
 31
0.0
100
AcDbText
 73
     2
  0
POINT
  5
BF6
100
AcDbEntity
  8
DEFPOINTS
  6
BYBLOCK
 62
     0
100
AcDbPoint
 10
148.511107
 20
184.5
 30
0.0
  0
POINT
  5
BF7
100
AcDbEntity
  8
DEFPOINTS
  6
BYBLOCK
 62
     0
100
AcDbPoint
 10
148.511107
 20
209.5
 30
0.0
  0
POINT
  5
BF8
100
AcDbEntity
  8
DEFPOINTS
  6
BYBLOCK
 62
     0
100
AcDbPoint
 10
160.346
 20
209.5
 30
0.0
  0
ENDBLK
  5
BFA
100
AcDbEntity
  8
0
100
AcDbBlockEnd
  0
BLOCK
  5
C08
100
AcDbEntity
  8
0
100
AcDbBlockBegin
  2
*D2
 70
     1
 10
0.0
 20
0.0
 30
0.0
  3
*D2
  1
AVE_RENDER
  0
LINE
  5
BFC
100
AcDbEntity
  8
0
  6
BYBLOCK
 62
     0
100
AcDbLine
 10
158.346
 20
184.5
 30
0.0
 11
158.546
 21
184.5
 31
0.0
  0
LINE
  5
BFD
100
AcDbEntity
  8
0
  6
BYBLOCK
 62
     0
100
AcDbLine
 10
150.511107
 20
178.5
 30
0.0
 11
162.146
 21
178.5
 31
0.0
  0
LINE
  5
BFE
100
AcDbEntity
  8
0
  6
BYBLOCK
 62
     0
100
AcDbLine
 10
160.346
 20
187.5
 30
0.0
 11
160.346
 21
190.5
 31
0.0
  0
LINE
  5
BFF
100
AcDbEntity
  8
0
  6
BYBLOCK
 62
     0
100
AcDbLine
 10
160.346
 20
175.5
 30
0.0
 11
160.346
 21
172.5
 31
0.0
  0
LINE
  5
C00
100
AcDbEntity
  8
0
  6
BYBLOCK
 62
     0
100
AcDbLine
 10
160.346
 20
172.5
 30
0.0
 11
160.346
 21
168.642857
 31
0.0
  0
SOLID
  5
C01
100
AcDbEntity
  8
0
  6
BYBLOCK
 62
     0
100
AcDbTrace
 10
159.846
 20
187.5
 30
0.0
 11
160.846
 21
187.5
 31
0.0
 12
160.346
 22
184.5
 32
0.0
 13
160.346
 23
184.5
 33
0.0
  0
SOLID
  5
C02
100
AcDbEntity
  8
0
  6
BYBLOCK
 62
     0
100
AcDbTrace
 10
159.846
 20
175.5
 30
0.0
 11
160.846
 21
175.5
 31
0.0
 12
160.346
 22
178.5
 32
0.0
 13
160.346
 23
178.5
 33
0.0
  0
LINE
  5
C03
100
AcDbEntity
  8
0
  6
BYBLOCK
 62
     0
100
AcDbLine
 10
160.346
 20
184.5
 30
0.0
 11
160.346
 21
178.5
 31
0.0
  0
TEXT
  5
C04
100
AcDbEntity
  8
0
  6
BYBLOCK
 62
     0
100
AcDbText
 10
158.846
 20
168.071429
 30
0.0
 40
3.0
  1
6
 50
90.0
  7
ROMANS
 72
     1
 11
157.346
 21
169.571429
 31
0.0
100
AcDbText
 73
     2
  0
POINT
  5
C05
100
AcDbEntity
  8
DEFPOINTS
  6
BYBLOCK
 62
     0
100
AcDbPoint
 10
160.346
 20
184.5
 30
0.0
  0
POINT
  5
C06
100
AcDbEntity
  8
DEFPOINTS
  6
BYBLOCK
 62
     0
100
AcDbPoint
 10
148.511107
 20
178.5
 30
0.0
  0
POINT
  5
C07
100
AcDbEntity
  8
DEFPOINTS
  6
BYBLOCK
 62
     0
100
AcDbPoint
 10
160.346
 20
178.5
 30
0.0
  0
ENDBLK
  5
C09
100
AcDbEntity
  8
0
100
AcDbBlockEnd
  0
BLOCK
  5
C14
100
AcDbEntity
  8
0
100
AcDbBlockBegin
  2
*D3
 70
     1
 10
0.0
 20
0.0
 30
0.0
  3
*D3
  1
AVE_RENDER
  0
LINE
  5
C0B
100
AcDbEntity
  8
0
  6
BYBLOCK
 62
     0
100
AcDbLine
 10
162.346
 20
178.5
 30
0.0
 11
169.566
 21
178.5
 31
0.0
  0
LINE
  5
C0C
100
AcDbEntity
  8
0
  6
BYBLOCK
 62
     0
100
AcDbLine
 10
162.346
 20
153.5
 30
0.0
 11
169.566
 21
153.5
 31
0.0
  0
LINE
  5
C0D
100
AcDbEntity
  8
0
  6
BYBLOCK
 62
     0
100
AcDbLine
 10
167.766
 20
175.5
 30
0.0
 11
167.766
 21
156.5
 31
0.0
  0
SOLID
  5
C0E
100
AcDbEntity
  8
0
  6
BYBLOCK
 62
     0
100
AcDbTrace
 10
167.266
 20
175.5
 30
0.0
 11
168.266
 21
175.5
 31
0.0
 12
167.766
 22
178.5
 32
0.0
 13
167.766
 23
178.5
 33
0.0
  0
SOLID
  5
C0F
100
AcDbEntity
  8
0
  6
BYBLOCK
 62
     0
100
AcDbTrace
 10
167.266
 20
156.5
 30
0.0
 11
168.266
 21
156.5
 31
0.0
 12
167.766
 22
153.5
 32
0.0
 13
167.766
 23
153.5
 33
0.0
  0
TEXT
  5
C10
100
AcDbEntity
  8
0
  6
BYBLOCK
 62
     0
100
AcDbText
 10
166.266
 20
163.142857
 30
0.0
 40
3.0
  1
25
 50
90.0
  7
ROMANS
 72
     1
 11
164.766
 21
166.0
 31
0.0
100
AcDbText
 73
     2
  0
POINT
  5
C11
100
AcDbEntity
  8
DEFPOINTS
  6
BYBLOCK
 62
     0
100
AcDbPoint
 10
160.346
 20
178.5
 30
0.0
  0
POINT
  5
C12
100
AcDbEntity
  8
DEFPOINTS
  6
BYBLOCK
 62
     0
100
AcDbPoint
 10
160.346
 20
153.5
 30
0.0
  0
POINT
  5
C13
100
AcDbEntity
  8
DEFPOINTS
  6
BYBLOCK
 62
     0
100
AcDbPoint
 10
167.766
 20
153.5
 30
0.0
  0
ENDBLK
  5
C15
100
AcDbEntity
  8
0
100
AcDbBlockEnd
  0
BLOCK
  5
C23
100
AcDbEntity
  8
0
100
AcDbBlockBegin
  2
*D4
 70
     1
 10
0.0
 20
0.0
 30
0.0
  3
*D4
  1
AVE_RENDER
  0
LINE
  5
C17
100
AcDbEntity
  8
0
  6
BYBLOCK
 62
     0
100
AcDbLine
 10
120.5
 20
174.5
 30
0.0
 11
108.936
 21
174.5
 31
0.0
  0
LINE
  5
C18
100
AcDbEntity
  8
0
  6
BYBLOCK
 62
     0
100
AcDbLine
 10
120.5
 20
173.5
 30
0.0
 11
108.936
 21
173.5
 31
0.0
  0
LINE
  5
C19
100
AcDbEntity
  8
0
  6
BYBLOCK
 62
     0
100
AcDbLine
 10
110.736
 20
177.5
 30
0.0
 11
110.736
 21
180.5
 31
0.0
  0
LINE
  5
C1A
100
AcDbEntity
  8
0
  6
BYBLOCK
 62
     0
100
AcDbLine
 10
110.736
 20
170.5
 30
0.0
 11
110.736
 21
167.5
 31
0.0
  0
LINE
  5
C1B
100
AcDbEntity
  8
0
  6
BYBLOCK
 62
     0
100
AcDbLine
 10
110.736
 20
167.5
 30
0.0
 11
110.736
 21
149.928571
 31
0.0
  0
SOLID
  5
C1C
100
AcDbEntity
  8
0
  6
BYBLOCK
 62
     0
100
AcDbTrace
 10
110.236
 20
177.5
 30
0.0
 11
111.236
 21
177.5
 31
0.0
 12
110.736
 22
174.5
 32
0.0
 13
110.736
 23
174.5
 33
0.0
  0
SOLID
  5
C1D
100
AcDbEntity
  8
0
  6
BYBLOCK
 62
     0
100
AcDbTrace
 10
110.236
 20
170.5
 30
0.0
 11
111.236
 21
170.5
 31
0.0
 12
110.736
 22
173.5
 32
0.0
 13
110.736
 23
173.5
 33
0.0
  0
LINE
  5
C1E
100
AcDbEntity
  8
0
  6
BYBLOCK
 62
     0
100
AcDbLine
 10
110.736
 20
174.5
 30
0.0
 11
110.736
 21
173.5
 31
0.0
  0
TEXT
  5
C1F
100
AcDbEntity
  8
0
  6
BYBLOCK
 62
     0
100
AcDbText
 10
109.236
 20
149.5
 30
0.0
 40
3.0
  1
0,5x45%%d
 50
90.0
  7
ROMANS
 72
     1
 11
107.736
 21
157.714286
 31
0.0
100
AcDbText
 73
     2
  0
POINT
  5
C20
100
AcDbEntity
  8
DEFPOINTS
  6
BYBLOCK
 62
     0
100
AcDbPoint
 10
122.5
 20
174.5
 30
0.0
  0
POINT
  5
C21
100
AcDbEntity
  8
DEFPOINTS
  6
BYBLOCK
 62
     0
100
AcDbPoint
 10
122.5
 20
173.5
 30
0.0
  0
POINT
  5
C22
100
AcDbEntity
  8
DEFPOINTS
  6
BYBLOCK
 62
     0
100
AcDbPoint
 10
110.736
 20
173.5
 30
0.0
  0
ENDBLK
  5
C24
100
AcDbEntity
  8
0
100
AcDbBlockEnd
  0
BLOCK
  5
C32
100
AcDbEntity
  8
0
100
AcDbBlockBegin
  2
*D5
 70
     1
 10
0.0
 20
0.0
 30
0.0
  3
*D5
  1
AVE_RENDER
  0
LINE
  5
C26
100
AcDbEntity
  8
0
  6
BYBLOCK
 62
     0
100
AcDbLine
 10
121.0
 20
210.5
 30
0.0
 11
121.0
 21
232.134
 31
0.0
  0
LINE
  5
C27
100
AcDbEntity
  8
0
  6
BYBLOCK
 62
     0
100
AcDbLine
 10
146.0
 20
210.5
 30
0.0
 11
146.0
 21
232.134
 31
0.0
  0
LINE
  5
C28
100
AcDbEntity
  8
0
  6
BYBLOCK
 62
     0
100
AcDbLine
 10
118.0
 20
230.334
 30
0.0
 11
115.0
 21
230.334
 31
0.0
  0
LINE
  5
C29
100
AcDbEntity
  8
0
  6
BYBLOCK
 62
     0
100
AcDbLine
 10
149.0
 20
230.334
 30
0.0
 11
152.0
 21
230.334
 31
0.0
  0
LINE
  5
C2A
100
AcDbEntity
  8
0
  6
BYBLOCK
 62
     0
100
AcDbLine
 10
152.0
 20
230.334
 30
0.0
 11
169.142857
 21
230.334
 31
0.0
  0
SOLID
  5
C2B
100
AcDbEntity
  8
0
  6
BYBLOCK
 62
     0
100
AcDbTrace
 10
118.0
 20
230.834
 30
0.0
 11
118.0
 21
229.834
 31
0.0
 12
121.0
 22
230.334
 32
0.0
 13
121.0
 23
230.334
 33
0.0
  0
SOLID
  5
C2C
100
AcDbEntity
  8
0
  6
BYBLOCK
 62
     0
100
AcDbTrace
 10
149.0
 20
230.834
 30
0.0
 11
149.0
 21
229.834
 31
0.0
 12
146.0
 22
230.334
 32
0.0
 13
146.0
 23
230.334
 33
0.0
  0
LINE
  5
C2D
100
AcDbEntity
  8
0
  6
BYBLOCK
 62
     0
100
AcDbLine
 10
121.0
 20
230.334
 30
0.0
 11
146.0
 21
230.334
 31
0.0
  0
TEXT
  5
C2E
100
AcDbEntity
  8
0
  6
BYBLOCK
 62
     0
100
AcDbText
 10
153.571429
 20
231.834
 30
0.0
 40
3.0
  1
%%C25 f8
  7
ROMANS
 72
     1
 11
161.571429
 21
233.334
 31
0.0
100
AcDbText
 73
     2
  0
POINT
  5
C2F
100
AcDbEntity
  8
DEFPOINTS
  6
BYBLOCK
 62
     0
100
AcDbPoint
 10
121.0
 20
208.5
 30
0.0
  0
POINT
  5
C30
100
AcDbEntity
  8
DEFPOINTS
  6
BYBLOCK
 62
     0
100
AcDbPoint
 10
146.0
 20
208.5
 30
0.0
  0
POINT
  5
C31
100
AcDbEntity
  8
DEFPOINTS
  6
BYBLOCK
 62
     0
100
AcDbPoint
 10
146.0
 20
230.334
 30
0.0
  0
ENDBLK
  5
C33
100
AcDbEntity
  8
0
100
AcDbBlockEnd
  0
BLOCK
  5
C41
100
AcDbEntity
  8
0
100
AcDbBlockBegin
  2
*D6
 70
     1
 10
0.0
 20
0.0
 30
0.0
  3
*D6
  1
AVE_RENDER
  0
LINE
  5
C35
100
AcDbEntity
  8
0
  6
BYBLOCK
 62
     0
100
AcDbLine
 10
122.5
 20
172.5
 30
0.0
 11
122.5
 21
128.552
 31
0.0
  0
LINE
  5
C36
100
AcDbEntity
  8
0
  6
BYBLOCK
 62
     0
100
AcDbLine
 10
144.5
 20
172.5
 30
0.0
 11
144.5
 21
128.552
 31
0.0
  0
LINE
  5
C37
100
AcDbEntity
  8
0
  6
BYBLOCK
 62
     0
100
AcDbLine
 10
119.5
 20
130.352
 30
0.0
 11
116.5
 21
130.352
 31
0.0
  0
LINE
  5
C38
100
AcDbEntity
  8
0
  6
BYBLOCK
 62
     0
100
AcDbLine
 10
147.5
 20
130.352
 30
0.0
 11
150.5
 21
130.352
 31
0.0
  0
LINE
  5
C39
100
AcDbEntity
  8
0
  6
BYBLOCK
 62
     0
100
AcDbLine
 10
150.5
 20
130.352
 30
0.0
 11
167.642857
 21
130.352
 31
0.0
  0
SOLID
  5
C3A
100
AcDbEntity
  8
0
  6
BYBLOCK
 62
     0
100
AcDbTrace
 10
119.5
 20
130.852
 30
0.0
 11
119.5
 21
129.852
 31
0.0
 12
122.5
 22
130.352
 32
0.0
 13
122.5
 23
130.352
 33
0.0
  0
SOLID
  5
C3B
100
AcDbEntity
  8
0
  6
BYBLOCK
 62
     0
100
AcDbTrace
 10
147.5
 20
130.852
 30
0.0
 11
147.5
 21
129.852
 31
0.0
 12
144.5
 22
130.352
 32
0.0
 13
144.5
 23
130.352
 33
0.0
  0
LINE
  5
C3C
100
AcDbEntity
  8
0
  6
BYBLOCK
 62
     0
100
AcDbLine
 10
122.5
 20
130.352
 30
0.0
 11
144.5
 21
130.352
 31
0.0
  0
TEXT
  5
C3D
100
AcDbEntity
  8
0
  6
BYBLOCK
 62
     0
100
AcDbText
 10
152.071429
 20
131.852
 30
0.0
 40
3.0
  1
%%C22 f8
  7
ROMANS
 72
     1
 11
160.071429
 21
133.352
 31
0.0
100
AcDbText
 73
     2
  0
POINT
  5
C3E
100
AcDbEntity
  8
DEFPOINTS
  6
BYBLOCK
 62
     0
100
AcDbPoint
 10
122.5
 20
174.5
 30
0.0
  0
POINT
  5
C3F
100
AcDbEntity
  8
DEFPOINTS
  6
BYBLOCK
 62
     0
100
AcDbPoint
 10
144.5
 20
174.5
 30
0.0
  0
POINT
  5
C40
100
AcDbEntity
  8
DEFPOINTS
  6
BYBLOCK
 62
     0
100
AcDbPoint
 10
144.5
 20
130.352
 30
0.0
  0
ENDBLK
  5
C42
100
AcDbEntity
  8
0
100
AcDbBlockEnd
  0
BLOCK
  5
C50
100
AcDbEntity
  8
0
100
AcDbBlockBegin
  2
*D7
 70
     1
 10
0.0
 20
0.0
 30
0.0
  3
*D7
  1
AVE_RENDER
  0
LINE
  5
C44
100
AcDbEntity
  8
0
  6
BYBLOCK
 62
     0
100
AcDbLine
 10
123.5
 20
152.5
 30
0.0
 11
123.5
 21
134.902
 31
0.0
  0
LINE
  5
C45
100
AcDbEntity
  8
0
  6
BYBLOCK
 62
     0
100
AcDbLine
 10
143.5
 20
152.5
 30
0.0
 11
143.5
 21
134.902
 31
0.0
  0
LINE
  5
C46
100
AcDbEntity
  8
0
  6
BYBLOCK
 62
     0
100
AcDbLine
 10
120.5
 20
136.702
 30
0.0
 11
117.5
 21
136.702
 31
0.0
  0
LINE
  5
C47
100
AcDbEntity
  8
0
  6
BYBLOCK
 62
     0
100
AcDbLine
 10
146.5
 20
136.702
 30
0.0
 11
149.5
 21
136.702
 31
0.0
  0
LINE
  5
C48
100
AcDbEntity
  8
0
  6
BYBLOCK
 62
     0
100
AcDbLine
 10
149.5
 20
136.702
 30
0.0
 11
163.357143
 21
136.702
 31
0.0
  0
SOLID
  5
C49
100
AcDbEntity
  8
0
  6
BYBLOCK
 62
     0
100
AcDbTrace
 10
120.5
 20
137.202
 30
0.0
 11
120.5
 21
136.202
 31
0.0
 12
123.5
 22
136.702
 32
0.0
 13
123.5
 23
136.702
 33
0.0
  0
SOLID
  5
C4A
100
AcDbEntity
  8
0
  6
BYBLOCK
 62
     0
100
AcDbTrace
 10
146.5
 20
137.202
 30
0.0
 11
146.5
 21
136.202
 31
0.0
 12
143.5
 22
136.702
 32
0.0
 13
143.5
 23
136.702
 33
0.0
  0
LINE
  5
C4B
100
AcDbEntity
  8
0
  6
BYBLOCK
 62
     0
100
AcDbLine
 10
123.5
 20
136.702
 30
0.0
 11
143.5
 21
136.702
 31
0.0
  0
TEXT
  5
C4C
100
AcDbEntity
  8
0
  6
BYBLOCK
 62
     0
100
AcDbText
 10
150.928571
 20
138.202
 30
0.0
 40
3.0
  1
M-20
  7
ROMANS
 72
     1
 11
157.428571
 21
139.702
 31
0.0
100
AcDbText
 73
     2
  0
POINT
  5
C4D
100
AcDbEntity
  8
DEFPOINTS
  6
BYBLOCK
 62
     0
100
AcDbPoint
 10
123.5
 20
154.5
 30
0.0
  0
POINT
  5
C4E
100
AcDbEntity
  8
DEFPOINTS
  6
BYBLOCK
 62
     0
100
AcDbPoint
 10
143.5
 20
154.5
 30
0.0
  0
POINT
  5
C4F
100
AcDbEntity
  8
DEFPOINTS
  6
BYBLOCK
 62
     0
100
AcDbPoint
 10
143.5
 20
136.702
 30
0.0
  0
ENDBLK
  5
C51
100
AcDbEntity
  8
0
100
AcDbBlockEnd
  0
BLOCK
  5
C5F
100
AcDbEntity
  8
0
100
AcDbBlockBegin
  2
*D8
 70
     1
 10
0.0
 20
0.0
 30
0.0
  3
*D8
  1
AVE_RENDER
  0
LINE
  5
C53
100
AcDbEntity
  8
0
  6
BYBLOCK
 62
     0
100
AcDbLine
 10
150.511107
 20
178.5
 30
0.0
 11
154.283
 21
178.5
 31
0.0
  0
LINE
  5
C54
100
AcDbEntity
  8
0
  6
BYBLOCK
 62
     0
100
AcDbLine
 10
145.5
 20
173.5
 30
0.0
 11
154.283
 21
173.5
 31
0.0
  0
LINE
  5
C55
100
AcDbEntity
  8
0
  6
BYBLOCK
 62
     0
100
AcDbLine
 10
152.483
 20
181.5
 30
0.0
 11
152.483
 21
184.5
 31
0.0
  0
LINE
  5
C56
100
AcDbEntity
  8
0
  6
BYBLOCK
 62
     0
100
AcDbLine
 10
152.483
 20
170.5
 30
0.0
 11
152.483
 21
167.5
 31
0.0
  0
LINE
  5
C57
100
AcDbEntity
  8
0
  6
BYBLOCK
 62
     0
100
AcDbLine
 10
152.483
 20
167.5
 30
0.0
 11
152.483
 21
163.5
 31
0.0
  0
SOLID
  5
C58
100
AcDbEntity
  8
0
  6
BYBLOCK
 62
     0
100
AcDbTrace
 10
151.983
 20
181.5
 30
0.0
 11
152.983
 21
181.5
 31
0.0
 12
152.483
 22
178.5
 32
0.0
 13
152.483
 23
178.5
 33
0.0
  0
SOLID
  5
C59
100
AcDbEntity
  8
0
  6
BYBLOCK
 62
     0
100
AcDbTrace
 10
151.983
 20
170.5
 30
0.0
 11
152.983
 21
170.5
 31
0.0
 12
152.483
 22
173.5
 32
0.0
 13
152.483
 23
173.5
 33
0.0
  0
LINE
  5
C5A
100
AcDbEntity
  8
0
  6
BYBLOCK
 62
     0
100
AcDbLine
 10
152.483
 20
178.5
 30
0.0
 11
152.483
 21
173.5
 31
0.0
  0
TEXT
  5
C5B
100
AcDbEntity
  8
0
  6
BYBLOCK
 62
     0
100
AcDbText
 10
150.983
 20
163.071429
 30
0.0
 40
3.0
  1
5
 50
90.0
  7
ROMANS
 72
     1
 11
149.483
 21
164.5
 31
0.0
100
AcDbText
 73
     2
  0
POINT
  5
C5C
100
AcDbEntity
  8
DEFPOINTS
  6
BYBLOCK
 62
     0
100
AcDbPoint
 10
148.511107
 20
178.5
 30
0.0
  0
POINT
  5
C5D
100
AcDbEntity
  8
DEFPOINTS
  6
BYBLOCK
 62
     0
100
AcDbPoint
 10
143.5
 20
173.5
 30
0.0
  0
POINT
  5
C5E
100
AcDbEntity
  8
DEFPOINTS
  6
BYBLOCK
 62
     0
100
AcDbPoint
 10
152.483
 20
173.5
 30
0.0
  0
ENDBLK
  5
C60
100
AcDbEntity
  8
0
100
AcDbBlockEnd
  0
BLOCK
  5
C6B
100
AcDbEntity
  8
0
100
AcDbBlockBegin
  2
*D9
 70
     1
 10
0.0
 20
0.0
 30
0.0
  3
*D9
  1
AVE_RENDER
  0
LINE
  5
C62
100
AcDbEntity
  8
0
  6
BYBLOCK
 62
     0
100
AcDbLine
 10
143.005553
 20
88.474
 30
0.0
 11
167.255
 21
88.474
 31
0.0
  0
LINE
  5
C63
100
AcDbEntity
  8
0
  6
BYBLOCK
 62
     0
100
AcDbLine
 10
143.005553
 20
114.474
 30
0.0
 11
167.255
 21
114.474
 31
0.0
  0
LINE
  5
C64
100
AcDbEntity
  8
0
  6
BYBLOCK
 62
     0
100
AcDbLine
 10
165.455
 20
91.474
 30
0.0
 11
165.455
 21
111.474
 31
0.0
  0
SOLID
  5
C65
100
AcDbEntity
  8
0
  6
BYBLOCK
 62
     0
100
AcDbTrace
 10
164.955
 20
91.474
 30
0.0
 11
165.955
 21
91.474
 31
0.0
 12
165.455
 22
88.474
 32
0.0
 13
165.455
 23
88.474
 33
0.0
  0
SOLID
  5
C66
100
AcDbEntity
  8
0
  6
BYBLOCK
 62
     0
100
AcDbTrace
 10
164.955
 20
111.474
 30
0.0
 11
165.955
 21
111.474
 31
0.0
 12
165.455
 22
114.474
 32
0.0
 13
165.455
 23
114.474
 33
0.0
  0
TEXT
  5
C67
100
AcDbEntity
  8
0
  6
BYBLOCK
 62
     0
100
AcDbText
 10
163.955
 20
93.831143
 30
0.0
 40
3.0
  1
EC=26
 50
90.0
  7
ROMANS
 72
     1
 11
162.455
 21
101.474
 31
0.0
100
AcDbText
 73
     2
  0
POINT
  5
C68
100
AcDbEntity
  8
DEFPOINTS
  6
BYBLOCK
 62
     0
100
AcDbPoint
 10
141.005553
 20
88.474
 30
0.0
  0
POINT
  5
C69
100
AcDbEntity
  8
DEFPOINTS
  6
BYBLOCK
 62
     0
100
AcDbPoint
 10
141.005553
 20
114.474
 30
0.0
  0
POINT
  5
C6A
100
AcDbEntity
  8
DEFPOINTS
  6
BYBLOCK
 62
     0
100
AcDbPoint
 10
165.455
 20
114.474
 30
0.0
  0
ENDBLK
  5
C6C
100
AcDbEntity
  8
0
100
AcDbBlockEnd
  0
BLOCK
  5
C9E
100
AcDbEntity
  8
0
100
AcDbBlockBegin
  2
A$C094F77C8
 70
     0
 10
0.0
 20
0.0
 30
0.0
  3
A$C094F77C8
  1

  0
DIMENSION
  5
C6F
100
AcDbEntity
  8
COTAS
100
AcDbDimension
  2
*D7
 10
75.831429
 20
58.493
 30
0.0
 11
89.76
 21
61.493
 31
0.0
 12
-67.668571
 22
-78.209
 32
0.0
  1
M-20
  3
NIASA
100
AcDbAlignedDimension
 13
55.831429
 23
76.291
 33
0.0
 14
75.831429
 24
76.291
 34
0.0
100
AcDbRotatedDimension
  0
DIMENSION
  5
C70
100
AcDbEntity
  8
COTAS
100
AcDbDimension
  2
*D6
 10
76.831429
 20
52.143
 30
0.0
 11
92.402858
 21
55.143
 31
0.0
 12
-67.668571
 22
-78.209
 32
0.0
  1
%%C22 f8
  3
NIASA
100
AcDbAlignedDimension
 13
54.831429
 23
96.291
 33
0.0
 14
76.831429
 24
96.291
 34
0.0
100
AcDbRotatedDimension
  0
LINE
  5
C71
100
AcDbEntity
  8
EJES
100
AcDbLine
 10
65.831429
 20
141.291
 30
0.0
 11
65.831429
 21
65.291
 31
0.0
  0
LWPOLYLINE
  5
C72
100
AcDbEntity
  8
0
100
AcDbPolyline
 90
        6
 70
     1
 43
0.0
 10
58.325875
 20
36.265
 10
50.820322
 20
23.265
 10
58.325875
 20
10.265
 10
73.336982
 20
10.265
 10
80.842536
 20
23.265
 10
73.336982
 20
36.265
  0
CIRCLE
  5
C73
100
AcDbEntity
  8
0
100
AcDbCircle
 10
65.831429
 20
23.265
 30
0.0
 40
12.5
  0
LINE
  5
C74
100
AcDbEntity
  8
EJES
100
AcDbLine
 10
42.566429
 20
23.265
 30
0.0
 11
89.096429
 21
23.265
 31
0.0
  0
LINE
  5
C75
100
AcDbEntity
  8
EJES
100
AcDbLine
 10
65.831429
 20
47.265
 30
0.0
 11
65.831429
 21
0.0
 31
0.0
  0
DIMENSION
  5
C76
100
AcDbEntity
  8
COTAS
100
AcDbDimension
  2
*D9
 10
97.786429
 20
36.265
 30
0.0
 11
94.786429
 21
23.265
 31
0.0
 12
-67.668571
 22
-78.209
 32
0.0
  1
EC=26
  3
NIASA
100
AcDbAlignedDimension
 13
73.336982
 23
10.265
 33
0.0
 14
73.336982
 24
36.265
 34
0.0
 50
90.0
100
AcDbRotatedDimension
  0
DIMENSION
  5
C77
100
AcDbEntity
  8
COTAS
100
AcDbDimension
  2
*D5
 10
78.331429
 20
152.125
 30
0.0
 11
93.902858
 21
155.125
 31
0.0
 12
-67.668571
 22
-78.209
 32
0.0
  1
%%C25 f8
  3
NIASA
100
AcDbAlignedDimension
 13
53.331429
 23
130.291
 33
0.0
 14
78.331429
 24
130.291
 34
0.0
100
AcDbRotatedDimension
  0
LINE
  5
C78
100
AcDbEntity
  8
0
100
AcDbLine
 10
54.831429
 20
96.291
 30
0.0
 11
76.831429
 21
96.291
 31
0.0
  0
LINE
  5
C79
100
AcDbEntity
  8
0
100
AcDbLine
 10
55.831429
 20
93.291
 30
0.0
 11
75.831429
 21
93.291
 31
0.0
  0
LINE
  5
C7A
100
AcDbEntity
  8
0
100
AcDbLine
 10
55.831429
 20
76.291
 30
0.0
 11
75.831429
 21
76.291
 31
0.0
  0
LINE
  5
C7B
100
AcDbEntity
  8
0
100
AcDbLine
 10
55.831429
 20
95.291
 30
0.0
 11
75.831429
 21
95.291
 31
0.0
  0
LINE
  5
C7C
100
AcDbEntity
  8
0
100
AcDbLine
 10
50.820322
 20
100.291
 30
0.0
 11
80.842536
 21
100.291
 31
0.0
  0
LINE
  5
C7D
100
AcDbEntity
  8
0
100
AcDbLine
 10
50.820322
 20
106.291
 30
0.0
 11
80.842536
 21
106.291
 31
0.0
  0
LINE
  5
C7E
100
AcDbEntity
  8
0
100
AcDbLine
 10
53.331429
 20
130.291
 30
0.0
 11
78.331429
 21
130.291
 31
0.0
  0
LINE
  5
C7F
100
AcDbEntity
  8
0
100
AcDbLine
 10
56.831429
 20
75.291
 30
0.0
 11
74.831429
 21
75.291
 31
0.0
  0
LINE
  5
C80
100
AcDbEntity
  8
0
100
AcDbLine
 10
54.331429
 20
131.291
 30
0.0
 11
77.331429
 21
131.291
 31
0.0
  0
LINE
  5
C81
100
AcDbEntity
  8
0
100
AcDbLine
 10
53.331429
 20
130.291
 30
0.0
 11
53.331429
 21
106.291
 31
0.0
  0
LINE
  5
C82
100
AcDbEntity
  8
COTAS
100
AcDbLine
 10
56.635066
 20
96.026143
 30
0.0
 11
37.093429
 21
108.37
 31
0.0
  0
DIMENSION
  5
C83
100
AcDbEntity
  8
COTAS
100
AcDbDimension
  2
*D4
 10
43.067429
 20
95.291
 30
0.0
 11
40.067429
 21
79.505286
 31
0.0
 12
-67.668571
 22
-78.209
 32
0.0
  1
0,5x45%%d
  3
NIASA
100
AcDbAlignedDimension
 13
54.831429
 23
96.291
 33
0.0
 14
54.831429
 24
95.291
 34
0.0
 50
90.0
100
AcDbRotatedDimension
  0
LINE
  5
C84
100
AcDbEntity
  8
COTAS
100
AcDbLine
 10
37.093429
 20
108.37
 30
0.0
 11
33.571429
 21
108.37
 31
0.0
  0
LINE
  5
C85
100
AcDbEntity
  8
0
100
AcDbLine
 10
56.831429
 20
95.291
 30
0.0
 11
56.831429
 21
75.291
 31
0.0
  0
LINE
  5
C86
100
AcDbEntity
  8
0
100
AcDbLine
 10
55.831429
 20
93.291
 30
0.0
 11
55.831429
 21
76.291
 31
0.0
  0
LINE
  5
C87
100
AcDbEntity
  8
0
100
AcDbLine
 10
55.831429
 20
76.291
 30
0.0
 11
56.831429
 21
75.291
 31
0.0
  0
SOLID
  5
C88
100
AcDbEntity
  8
COTAS
100
AcDbTrace
 10
56.90209
 20
96.448871
 30
0.0
 11
56.368042
 21
95.603416
 31
0.0
 12
59.171429
 22
94.424
 32
0.0
 13
59.171429
 23
94.424
 33
0.0
  0
LINE
  5
C89
100
AcDbEntity
  8
0
100
AcDbLine
 10
54.831429
 20
100.291
 30
0.0
 11
54.831429
 21
96.291
 31
0.0
  0
LINE
  5
C8A
100
AcDbEntity
  8
0
100
AcDbLine
 10
54.831429
 20
96.291
 30
0.0
 11
55.831429
 21
95.291
 31
0.0
  0
LINE
  5
C8B
100
AcDbEntity
  8
0
100
AcDbLine
 10
50.820322
 20
100.291
 30
0.0
 11
50.820322
 21
106.291
 31
0.0
  0
LINE
  5
C8C
100
AcDbEntity
  8
0
100
AcDbLine
 10
58.325875
 20
100.291
 30
0.0
 11
58.325875
 21
106.291
 31
0.0
  0
LINE
  5
C8D
100
AcDbEntity
  8
0
100
AcDbLine
 10
54.331429
 20
131.291
 30
0.0
 11
53.331429
 21
130.291
 31
0.0
  0
DIMENSION
  5
C8E
100
AcDbEntity
  8
COTAS
100
AcDbDimension
  2
*D2
 10
92.677429
 20
100.291
 30
0.0
 11
89.677429
 21
91.362429
 31
0.0
 12
-67.668571
 22
-78.209
 32
0.0
  1
6
  3
NIASA
100
AcDbAlignedDimension
 13
92.677429
 23
106.291
 33
0.0
 14
80.842536
 24
100.291
 34
0.0
 50
90.0
100
AcDbRotatedDimension
  0
DIMENSION
  5
C8F
100
AcDbEntity
  8
COTAS
100
AcDbDimension
  2
*D1
 10
92.677429
 20
131.291
 30
0.0
 11
89.677429
 21
118.791
 31
0.0
 12
-67.668571
 22
-78.209
 32
0.0
  1
25
  3
NIASA
100
AcDbAlignedDimension
 13
80.842536
 23
106.291
 33
0.0
 14
80.842536
 24
131.291
 34
0.0
 50
90.0
100
AcDbRotatedDimension
  0
DIMENSION
  5
C90
100
AcDbEntity
  8
COTAS
100
AcDbDimension
  2
*D0
 10
110.863429
 20
131.291
 30
0.0
 11
107.863429
 21
103.291
 31
0.0
 12
-67.668571
 22
-78.209
 32
0.0
  1
56
  3
NIASA
100
AcDbAlignedDimension
 13
74.831429
 23
75.291
 33
0.0
 14
77.331429
 24
131.291
 34
0.0
 50
90.0
100
AcDbRotatedDimension
  0
LINE
  5
C91
100
AcDbEntity
  8
0
100
AcDbLine
 10
78.331429
 20
130.291
 30
0.0
 11
78.331429
 21
106.291
 31
0.0
  0
DIMENSION
  5
C92
100
AcDbEntity
  8
COTAS
100
AcDbDimension
  2
*D8
 10
84.814429
 20
95.291
 30
0.0
 11
81.814429
 21
86.291
 31
0.0
 12
-67.668571
 22
-78.209
 32
0.0
  1
5
  3
NIASA
100
AcDbAlignedDimension
 13
80.842536
 23
100.291
 33
0.0
 14
75.831429
 24
95.291
 34
0.0
 50
90.0
100
AcDbRotatedDimension
  0
DIMENSION
  5
C93
100
AcDbEntity
  8
COTAS
100
AcDbDimension
  2
*D3
 10
100.097429
 20
75.291
 30
0.0
 11
97.097429
 21
87.791
 31
0.0
 12
-67.668571
 22
-78.209
 32
0.0
  1
25
  3
NIASA
100
AcDbAlignedDimension
 13
92.677429
 23
100.291
 33
0.0
 14
92.677429
 24
75.291
 34
0.0
 50
90.0
100
AcDbRotatedDimension
  0
LINE
  5
C94
100
AcDbEntity
  8
0
100
AcDbLine
 10
74.831429
 20
95.291
 30
0.0
 11
74.831429
 21
75.291
 31
0.0
  0
LINE
  5
C95
100
AcDbEntity
  8
0
100
AcDbLine
 10
75.831429
 20
93.291
 30
0.0
 11
75.831429
 21
76.291
 31
0.0
  0
LINE
  5
C96
100
AcDbEntity
  8
0
100
AcDbLine
 10
74.831429
 20
75.291
 30
0.0
 11
75.831429
 21
76.291
 31
0.0
  0
LINE
  5
C97
100
AcDbEntity
  8
0
100
AcDbLine
 10
76.831429
 20
100.291
 30
0.0
 11
76.831429
 21
96.291
 31
0.0
  0
LINE
  5
C98
100
AcDbEntity
  8
0
100
AcDbLine
 10
75.831429
 20
95.291
 30
0.0
 11
76.831429
 21
96.291
 31
0.0
  0
LINE
  5
C99
100
AcDbEntity
  8
0
100
AcDbLine
 10
73.336982
 20
100.291
 30
0.0
 11
73.336982
 21
106.291
 31
0.0
  0
LINE
  5
C9A
100
AcDbEntity
  8
0
100
AcDbLine
 10
80.842536
 20
100.291
 30
0.0
 11
80.842536
 21
106.291
 31
0.0
  0
LINE
  5
C9B
100
AcDbEntity
  8
0
100
AcDbLine
 10
77.331429
 20
131.291
 30
0.0
 11
78.331429
 21
130.291
 31
0.0
  0
TEXT
  5
C9C
100
AcDbEntity
  8
COTAS
100
AcDbText
 10
-0.428571
 20
109.87
 30
0.0
 40
3.0
  1
SALIDA ROSCA
  7
ROMANS
 72
     2
 11
31.571429
 21
111.37
 31
0.0
100
AcDbText
 73
     2
  0
LINE
  5
C9D
100
AcDbEntity
  8
COTAS
100
AcDbLine
 10
33.571429
 20
108.37
 30
0.0
 11
0.0
 21
108.37
 31
0.0
  0
ENDBLK
  5
C9F
100
AcDbEntity
  8
0
100
AcDbBlockEnd
  0
BLOCK
  5
FD6
100
AcDbEntity
  8
0
100
AcDbBlockBegin
  2
*D11
 70
     1
 10
0.0
 20
0.0
 30
0.0
  3
*D11
  1

  0
LINE
  5
FCD
100
AcDbEntity
  8
0
  6
BYBLOCK
 62
     0
100
AcDbLine
 10
375.575
 20
-309.0011
 30
0.0
 11
375.575
 21
-278.3406
 31
0.0
  0
LINE
  5
FCE
100
AcDbEntity
  8
0
  6
BYBLOCK
 62
     0
100
AcDbLine
 10
457.575
 20
-309.0011
 30
0.0
 11
457.575
 21
-278.3406
 31
0.0
  0
LINE
  5
FCF
100
AcDbEntity
  8
0
  6
BYBLOCK
 62
     0
100
AcDbLine
 10
378.575
 20
-280.1406
 30
0.0
 11
454.575
 21
-280.1406
 31
0.0
  0
SOLID
  5
FD0
100
AcDbEntity
  8
0
  6
BYBLOCK
 62
     0
100
AcDbTrace
 10
378.575
 20
-279.6406
 30
0.0
 11
378.575
 21
-280.6406
 31
0.0
 12
375.575
 22
-280.1406
 32
0.0
 13
375.575
 23
-280.1406
 33
0.0
  0
SOLID
  5
FD1
100
AcDbEntity
  8
0
  6
BYBLOCK
 62
     0
100
AcDbTrace
 10
454.575
 20
-279.6406
 30
0.0
 11
454.575
 21
-280.6406
 31
0.0
 12
457.575
 22
-280.1406
 32
0.0
 13
457.575
 23
-280.1406
 33
0.0
  0
MTEXT
  5
FD2
100
AcDbEntity
  8
0
  6
BYBLOCK
 62
     0
100
AcDbMText
 10
416.575
 20
-276.6406
 30
0.0
 40
3.0
 41
0.0
 71
     5
 72
     1
  1
\A1;82
  7
ROMANS
  0
POINT
  5
FD3
100
AcDbEntity
  8
DEFPOINTS
  6
BYBLOCK
 62
     0
100
AcDbPoint
 10
375.575
 20
-311.0011
 30
0.0
  0
POINT
  5
FD4
100
AcDbEntity
  8
DEFPOINTS
  6
BYBLOCK
 62
     0
100
AcDbPoint
 10
457.575
 20
-311.0011
 30
0.0
  0
POINT
  5
FD5
100
AcDbEntity
  8
DEFPOINTS
  6
BYBLOCK
 62
     0
100
AcDbPoint
 10
457.575
 20
-280.1406
 30
0.0
  0
ENDBLK
  5
FD7
100
AcDbEntity
  8
0
100
AcDbBlockEnd
  0
BLOCK
  5
FE2
100
AcDbEntity
  8
0
100
AcDbBlockBegin
  2
*D12
 70
     1
 10
0.0
 20
0.0
 30
0.0
  3
*D12
  1

  0
LINE
  5
FD9
100
AcDbEntity
  8
0
  6
BYBLOCK
 62
     0
100
AcDbLine
 10
373.575
 20
-311.0011
 30
0.0
 11
336.8098
 21
-311.0011
 31
0.0
  0
LINE
  5
FDA
100
AcDbEntity
  8
0
  6
BYBLOCK
 62
     0
100
AcDbLine
 10
373.575
 20
-441.0011
 30
0.0
 11
336.8098
 21
-441.0011
 31
0.0
  0
LINE
  5
FDB
100
AcDbEntity
  8
0
  6
BYBLOCK
 62
     0
100
AcDbLine
 10
338.6098
 20
-314.0011
 30
0.0
 11
338.6098
 21
-438.0011
 31
0.0
  0
SOLID
  5
FDC
100
AcDbEntity
  8
0
  6
BYBLOCK
 62
     0
100
AcDbTrace
 10
338.1098
 20
-314.0011
 30
0.0
 11
339.1098
 21
-314.0011
 31
0.0
 12
338.6098
 22
-311.0011
 32
0.0
 13
338.6098
 23
-311.0011
 33
0.0
  0
SOLID
  5
FDD
100
AcDbEntity
  8
0
  6
BYBLOCK
 62
     0
100
AcDbTrace
 10
338.1098
 20
-438.0011
 30
0.0
 11
339.1098
 21
-438.0011
 31
0.0
 12
338.6098
 22
-441.0011
 32
0.0
 13
338.6098
 23
-441.0011
 33
0.0
  0
MTEXT
  5
FDE
100
AcDbEntity
  8
0
  6
BYBLOCK
 62
     0
100
AcDbMText
 10
335.1098
 20
-376.0011
 30
0.0
 40
3.0
 41
0.0
 71
     5
 72
     1
  1
\A1;130
  7
ROMANS
 11
0.0
 21
1.0
 31
0.0
  0
POINT
  5
FDF
100
AcDbEntity
  8
DEFPOINTS
  6
BYBLOCK
 62
     0
100
AcDbPoint
 10
375.575
 20
-311.0011
 30
0.0
  0
POINT
  5
FE0
100
AcDbEntity
  8
DEFPOINTS
  6
BYBLOCK
 62
     0
100
AcDbPoint
 10
375.575
 20
-441.0011
 30
0.0
  0
POINT
  5
FE1
100
AcDbEntity
  8
DEFPOINTS
  6
BYBLOCK
 62
     0
100
AcDbPoint
 10
338.6098
 20
-441.0011
 30
0.0
  0
ENDBLK
  5
FE3
100
AcDbEntity
  8
0
100
AcDbBlockEnd
  0
BLOCK
  5
FEE
100
AcDbEntity
  8
0
100
AcDbBlockBegin
  2
*D13
 70
     1
 10
0.0
 20
0.0
 30
0.0
  3
*D13
  1

  0
LINE
  5
FE5
100
AcDbEntity
  8
0
  6
BYBLOCK
 62
     0
100
AcDbLine
 10
396.075
 20
-410.0011
 30
0.0
 11
359.8789
 21
-410.0011
 31
0.0
  0
LINE
  5
FE6
100
AcDbEntity
  8
0
  6
BYBLOCK
 62
     0
100
AcDbLine
 10
373.575
 20
-441.0011
 30
0.0
 11
359.8789
 21
-441.0011
 31
0.0
  0
LINE
  5
FE7
100
AcDbEntity
  8
0
  6
BYBLOCK
 62
     0
100
AcDbLine
 10
361.6789
 20
-413.0011
 30
0.0
 11
361.6789
 21
-438.0011
 31
0.0
  0
SOLID
  5
FE8
100
AcDbEntity
  8
0
  6
BYBLOCK
 62
     0
100
AcDbTrace
 10
361.1789
 20
-413.0011
 30
0.0
 11
362.1789
 21
-413.0011
 31
0.0
 12
361.6789
 22
-410.0011
 32
0.0
 13
361.6789
 23
-410.0011
 33
0.0
  0
SOLID
  5
FE9
100
AcDbEntity
  8
0
  6
BYBLOCK
 62
     0
100
AcDbTrace
 10
361.1789
 20
-438.0011
 30
0.0
 11
362.1789
 21
-438.0011
 31
0.0
 12
361.6789
 22
-441.0011
 32
0.0
 13
361.6789
 23
-441.0011
 33
0.0
  0
MTEXT
  5
FEA
100
AcDbEntity
  8
0
  6
BYBLOCK
 62
     0
100
AcDbMText
 10
358.1789
 20
-425.5011
 30
0.0
 40
3.0
 41
0.0
 71
     5
 72
     1
  1
\A1;31
  7
ROMANS
 11
0.0
 21
1.0
 31
0.0
  0
POINT
  5
FEB
100
AcDbEntity
  8
DEFPOINTS
  6
BYBLOCK
 62
     0
100
AcDbPoint
 10
398.075
 20
-410.0011
 30
0.0
  0
POINT
  5
FEC
100
AcDbEntity
  8
DEFPOINTS
  6
BYBLOCK
 62
     0
100
AcDbPoint
 10
375.575
 20
-441.0011
 30
0.0
  0
POINT
  5
FED
100
AcDbEntity
  8
DEFPOINTS
  6
BYBLOCK
 62
     0
100
AcDbPoint
 10
361.6789
 20
-441.0011
 30
0.0
  0
ENDBLK
  5
FEF
100
AcDbEntity
  8
0
100
AcDbBlockEnd
  0
BLOCK
  5
FFA
100
AcDbEntity
  8
0
100
AcDbBlockBegin
  2
*D14
 70
     1
 10
0.0
 20
0.0
 30
0.0
  3
*D14
  1

  0
LINE
  5
FF1
100
AcDbEntity
  8
0
  6
BYBLOCK
 62
     0
100
AcDbLine
 10
394.575
 20
-442.4936
 30
0.0
 11
394.575
 21
-480.5392
 31
0.0
  0
LINE
  5
FF2
100
AcDbEntity
  8
0
  6
BYBLOCK
 62
     0
100
AcDbLine
 10
438.575
 20
-442.4936
 30
0.0
 11
438.575
 21
-480.5392
 31
0.0
  0
LINE
  5
FF3
100
AcDbEntity
  8
0
  6
BYBLOCK
 62
     0
100
AcDbLine
 10
397.575
 20
-478.7392
 30
0.0
 11
435.575
 21
-478.7392
 31
0.0
  0
MTEXT
  5
FF4
100
AcDbEntity
  8
0
  6
BYBLOCK
 62
     0
100
AcDbMText
 10
416.575
 20
-485.0392
 30
0.0
 40
3.0
 41
0.0
 71
     5
 72
     1
  1
\A1;CUADRADO 44 mm.
  7
ROMANS
  0
SOLID
  5
FF5
100
AcDbEntity
  8
0
  6
BYBLOCK
 62
     0
100
AcDbTrace
 10
397.575
 20
-478.2392
 30
0.0
 11
397.575
 21
-479.2392
 31
0.0
 12
394.575
 22
-478.7392
 32
0.0
 13
394.575
 23
-478.7392
 33
0.0
  0
SOLID
  5
FF6
100
AcDbEntity
  8
0
  6
BYBLOCK
 62
     0
100
AcDbTrace
 10
435.575
 20
-478.2392
 30
0.0
 11
435.575
 21
-479.2392
 31
0.0
 12
438.575
 22
-478.7392
 32
0.0
 13
438.575
 23
-478.7392
 33
0.0
  0
POINT
  5
FF7
100
AcDbEntity
  8
DEFPOINTS
  6
BYBLOCK
 62
     0
100
AcDbPoint
 10
394.575
 20
-440.4936
 30
0.0
  0
POINT
  5
FF8
100
AcDbEntity
  8
DEFPOINTS
  6
BYBLOCK
 62
     0
100
AcDbPoint
 10
438.575
 20
-440.4936
 30
0.0
  0
POINT
  5
FF9
100
AcDbEntity
  8
DEFPOINTS
  6
BYBLOCK
 62
     0
100
AcDbPoint
 10
438.575
 20
-478.7392
 30
0.0
  0
ENDBLK
  5
FFB
100
AcDbEntity
  8
0
100
AcDbBlockEnd
  0
BLOCK
  5
1006
100
AcDbEntity
  8
0
100
AcDbBlockBegin
  2
*D15
 70
     1
 10
0.0
 20
0.0
 30
0.0
  3
*D15
  1

  0
LINE
  5
FFD
100
AcDbEntity
  8
0
  6
BYBLOCK
 62
     0
100
AcDbLine
 10
534.3476
 20
-380.5011
 30
0.0
 11
552.1234
 21
-380.5011
 31
0.0
  0
LINE
  5
FFE
100
AcDbEntity
  8
0
  6
BYBLOCK
 62
     0
100
AcDbLine
 10
534.3476
 20
-395.5011
 30
0.0
 11
552.1234
 21
-395.5011
 31
0.0
  0
LINE
  5
FFF
100
AcDbEntity
  8
0
  6
BYBLOCK
 62
     0
100
AcDbLine
 10
550.3234
 20
-383.5011
 30
0.0
 11
550.3234
 21
-392.5011
 31
0.0
  0
SOLID
  5
1000
100
AcDbEntity
  8
0
  6
BYBLOCK
 62
     0
100
AcDbTrace
 10
549.8234
 20
-383.5011
 30
0.0
 11
550.8234
 21
-383.5011
 31
0.0
 12
550.3234
 22
-380.5011
 32
0.0
 13
550.3234
 23
-380.5011
 33
0.0
  0
SOLID
  5
1001
100
AcDbEntity
  8
0
  6
BYBLOCK
 62
     0
100
AcDbTrace
 10
549.8234
 20
-392.5011
 30
0.0
 11
550.8234
 21
-392.5011
 31
0.0
 12
550.3234
 22
-395.5011
 32
0.0
 13
550.3234
 23
-395.5011
 33
0.0
  0
MTEXT
  5
1002
100
AcDbEntity
  8
0
  6
BYBLOCK
 62
     0
100
AcDbMText
 10
546.8234
 20
-388.0011
 30
0.0
 40
3.0
 41
0.0
 71
     5
 72
     1
  1
\A1;\U+220515
  7
ROMANS
 11
0.0
 21
1.0
 31
0.0
  0
POINT
  5
1003
100
AcDbEntity
  8
DEFPOINTS
  6
BYBLOCK
 62
     0
100
AcDbPoint
 10
532.3476
 20
-380.5011
 30
0.0
  0
POINT
  5
1004
100
AcDbEntity
  8
DEFPOINTS
  6
BYBLOCK
 62
     0
100
AcDbPoint
 10
532.3476
 20
-395.5011
 30
0.0
  0
POINT
  5
1005
100
AcDbEntity
  8
DEFPOINTS
  6
BYBLOCK
 62
     0
100
AcDbPoint
 10
550.3234
 20
-395.5011
 30
0.0
  0
ENDBLK
  5
1007
100
AcDbEntity
  8
0
100
AcDbBlockEnd
  0
BLOCK
  5
1014
100
AcDbEntity
  8
0
100
AcDbBlockBegin
  2
*D16
 70
     1
 10
0.0
 20
0.0
 30
0.0
  3
*D16
  1

  0
LINE
  5
1009
100
AcDbEntity
  8
0
  6
BYBLOCK
 62
     0
100
AcDbLine
 10
520.3476
 20
-383.5011
 30
0.0
 11
499.0883
 21
-383.5011
 31
0.0
  0
LINE
  5
100A
100
AcDbEntity
  8
0
  6
BYBLOCK
 62
     0
100
AcDbLine
 10
520.3476
 20
-392.5011
 30
0.0
 11
499.0883
 21
-392.5011
 31
0.0
  0
LINE
  5
100B
100
AcDbEntity
  8
0
  6
BYBLOCK
 62
     0
100
AcDbLine
 10
500.8883
 20
-380.5011
 30
0.0
 11
500.8883
 21
-377.5011
 31
0.0
  0
LINE
  5
100C
100
AcDbEntity
  8
0
  6
BYBLOCK
 62
     0
100
AcDbLine
 10
500.8883
 20
-395.5011
 30
0.0
 11
500.8883
 21
-398.5011
 31
0.0
  0
LINE
  5
100D
100
AcDbEntity
  8
0
  6
BYBLOCK
 62
     0
100
AcDbLine
 10
500.8883
 20
-383.5011
 30
0.0
 11
500.8883
 21
-392.5011
 31
0.0
  0
SOLID
  5
100E
100
AcDbEntity
  8
0
  6
BYBLOCK
 62
     0
100
AcDbTrace
 10
500.3883
 20
-380.5011
 30
0.0
 11
501.3883
 21
-380.5011
 31
0.0
 12
500.8883
 22
-383.5011
 32
0.0
 13
500.8883
 23
-383.5011
 33
0.0
  0
SOLID
  5
100F
100
AcDbEntity
  8
0
  6
BYBLOCK
 62
     0
100
AcDbTrace
 10
500.3883
 20
-395.5011
 30
0.0
 11
501.3883
 21
-395.5011
 31
0.0
 12
500.8883
 22
-392.5011
 32
0.0
 13
500.8883
 23
-392.5011
 33
0.0
  0
MTEXT
  5
1010
100
AcDbEntity
  8
0
  6
BYBLOCK
 62
     0
100
AcDbMText
 10
497.3883
 20
-388.0011
 30
0.0
 40
3.0
 41
0.0
 71
     5
 72
     1
  1
\A1;\U+22059
  7
ROMANS
 11
0.0
 21
1.0
 31
0.0
  0
POINT
  5
1011
100
AcDbEntity
  8
DEFPOINTS
  6
BYBLOCK
 62
     0
100
AcDbPoint
 10
522.3476
 20
-383.5011
 30
0.0
  0
POINT
  5
1012
100
AcDbEntity
  8
DEFPOINTS
  6
BYBLOCK
 62
     0
100
AcDbPoint
 10
522.3476
 20
-392.5011
 30
0.0
  0
POINT
  5
1013
100
AcDbEntity
  8
DEFPOINTS
  6
BYBLOCK
 62
     0
100
AcDbPoint
 10
500.8883
 20
-392.5011
 30
0.0
  0
ENDBLK
  5
1015
100
AcDbEntity
  8
0
100
AcDbBlockEnd
  0
BLOCK
  5
1022
100
AcDbEntity
  8
0
100
AcDbBlockBegin
  2
*D17
 70
     1
 10
0.0
 20
0.0
 30
0.0
  3
*D17
  1

  0
LINE
  5
1017
100
AcDbEntity
  8
0
  6
BYBLOCK
 62
     0
100
AcDbLine
 10
526.8476
 20
-397.5011
 30
0.0
 11
526.8476
 21
-405.3942
 31
0.0
  0
LINE
  5
1018
100
AcDbEntity
  8
0
  6
BYBLOCK
 62
     0
100
AcDbLine
 10
532.3476
 20
-397.5011
 30
0.0
 11
532.3476
 21
-405.3942
 31
0.0
  0
LINE
  5
1019
100
AcDbEntity
  8
0
  6
BYBLOCK
 62
     0
100
AcDbLine
 10
523.8476
 20
-403.5942
 30
0.0
 11
520.8476
 21
-403.5942
 31
0.0
  0
LINE
  5
101A
100
AcDbEntity
  8
0
  6
BYBLOCK
 62
     0
100
AcDbLine
 10
535.3476
 20
-403.5942
 30
0.0
 11
544.3476
 21
-403.5942
 31
0.0
  0
LINE
  5
101B
100
AcDbEntity
  8
0
  6
BYBLOCK
 62
     0
100
AcDbLine
 10
526.8476
 20
-403.5942
 30
0.0
 11
532.3476
 21
-403.5942
 31
0.0
  0
SOLID
  5
101C
100
AcDbEntity
  8
0
  6
BYBLOCK
 62
     0
100
AcDbTrace
 10
523.8476
 20
-403.0942
 30
0.0
 11
523.8476
 21
-404.0942
 31
0.0
 12
526.8476
 22
-403.5942
 32
0.0
 13
526.8476
 23
-403.5942
 33
0.0
  0
SOLID
  5
101D
100
AcDbEntity
  8
0
  6
BYBLOCK
 62
     0
100
AcDbTrace
 10
535.3476
 20
-403.0942
 30
0.0
 11
535.3476
 21
-404.0942
 31
0.0
 12
532.3476
 22
-403.5942
 32
0.0
 13
532.3476
 23
-403.5942
 33
0.0
  0
MTEXT
  5
101E
100
AcDbEntity
  8
0
  6
BYBLOCK
 62
     0
100
AcDbMText
 10
541.3476
 20
-400.0942
 30
0.0
 40
3.0
 41
0.0
 71
     5
 72
     1
  1
\A1;5
  7
ROMANS
  0
POINT
  5
101F
100
AcDbEntity
  8
DEFPOINTS
  6
BYBLOCK
 62
     0
100
AcDbPoint
 10
526.8476
 20
-395.5011
 30
0.0
  0
POINT
  5
1020
100
AcDbEntity
  8
DEFPOINTS
  6
BYBLOCK
 62
     0
100
AcDbPoint
 10
532.3476
 20
-395.5011
 30
0.0
  0
POINT
  5
1021
100
AcDbEntity
  8
DEFPOINTS
  6
BYBLOCK
 62
     0
100
AcDbPoint
 10
532.3476
 20
-403.5942
 30
0.0
  0
ENDBLK
  5
1023
100
AcDbEntity
  8
0
100
AcDbBlockEnd
  0
BLOCK
  5
102E
100
AcDbEntity
  8
0
100
AcDbBlockBegin
  2
*D18
 70
     1
 10
0.0
 20
0.0
 30
0.0
  3
*D18
  1

  0
LINE
  5
1025
100
AcDbEntity
  8
0
  6
BYBLOCK
 62
     0
100
AcDbLine
 10
438.575
 20
-476.7392
 30
0.0
 11
438.575
 21
-476.9392
 31
0.0
  0
LINE
  5
1026
100
AcDbEntity
  8
0
  6
BYBLOCK
 62
     0
100
AcDbLine
 10
457.575
 20
-443.0011
 30
0.0
 11
457.575
 21
-480.5392
 31
0.0
  0
LINE
  5
1027
100
AcDbEntity
  8
0
  6
BYBLOCK
 62
     0
100
AcDbLine
 10
441.575
 20
-478.7392
 30
0.0
 11
454.575
 21
-478.7392
 31
0.0
  0
SOLID
  5
1028
100
AcDbEntity
  8
0
  6
BYBLOCK
 62
     0
100
AcDbTrace
 10
441.575
 20
-478.2392
 30
0.0
 11
441.575
 21
-479.2392
 31
0.0
 12
438.575
 22
-478.7392
 32
0.0
 13
438.575
 23
-478.7392
 33
0.0
  0
SOLID
  5
1029
100
AcDbEntity
  8
0
  6
BYBLOCK
 62
     0
100
AcDbTrace
 10
454.575
 20
-478.2392
 30
0.0
 11
454.575
 21
-479.2392
 31
0.0
 12
457.575
 22
-478.7392
 32
0.0
 13
457.575
 23
-478.7392
 33
0.0
  0
MTEXT
  5
102A
100
AcDbEntity
  8
0
  6
BYBLOCK
 62
     0
100
AcDbMText
 10
448.075
 20
-475.2392
 30
0.0
 40
3.0
 41
0.0
 71
     5
 72
     1
  1
\A1;=
  7
ROMANS
  0
POINT
  5
102B
100
AcDbEntity
  8
DEFPOINTS
  6
BYBLOCK
 62
     0
100
AcDbPoint
 10
438.575
 20
-478.7392
 30
0.0
  0
POINT
  5
102C
100
AcDbEntity
  8
DEFPOINTS
  6
BYBLOCK
 62
     0
100
AcDbPoint
 10
457.575
 20
-441.0011
 30
0.0
  0
POINT
  5
102D
100
AcDbEntity
  8
DEFPOINTS
  6
BYBLOCK
 62
     0
100
AcDbPoint
 10
457.575
 20
-478.7392
 30
0.0
  0
ENDBLK
  5
102F
100
AcDbEntity
  8
0
100
AcDbBlockEnd
  0
BLOCK
  5
103A
100
AcDbEntity
  8
0
100
AcDbBlockBegin
  2
*D19
 70
     1
 10
0.0
 20
0.0
 30
0.0
  3
*D19
  1

  0
LINE
  5
1031
100
AcDbEntity
  8
0
  6
BYBLOCK
 62
     0
100
AcDbLine
 10
394.575
 20
-476.7392
 30
0.0
 11
394.575
 21
-476.9392
 31
0.0
  0
LINE
  5
1032
100
AcDbEntity
  8
0
  6
BYBLOCK
 62
     0
100
AcDbLine
 10
375.575
 20
-443.0011
 30
0.0
 11
375.575
 21
-480.5392
 31
0.0
  0
LINE
  5
1033
100
AcDbEntity
  8
0
  6
BYBLOCK
 62
     0
100
AcDbLine
 10
391.575
 20
-478.7392
 30
0.0
 11
378.575
 21
-478.7392
 31
0.0
  0
SOLID
  5
1034
100
AcDbEntity
  8
0
  6
BYBLOCK
 62
     0
100
AcDbTrace
 10
391.575
 20
-478.2392
 30
0.0
 11
391.575
 21
-479.2392
 31
0.0
 12
394.575
 22
-478.7392
 32
0.0
 13
394.575
 23
-478.7392
 33
0.0
  0
SOLID
  5
1035
100
AcDbEntity
  8
0
  6
BYBLOCK
 62
     0
100
AcDbTrace
 10
378.575
 20
-478.2392
 30
0.0
 11
378.575
 21
-479.2392
 31
0.0
 12
375.575
 22
-478.7392
 32
0.0
 13
375.575
 23
-478.7392
 33
0.0
  0
MTEXT
  5
1036
100
AcDbEntity
  8
0
  6
BYBLOCK
 62
     0
100
AcDbMText
 10
385.075
 20
-475.2392
 30
0.0
 40
3.0
 41
0.0
 71
     5
 72
     1
  1
\A1;=
  7
ROMANS
  0
POINT
  5
1037
100
AcDbEntity
  8
DEFPOINTS
  6
BYBLOCK
 62
     0
100
AcDbPoint
 10
394.575
 20
-478.7392
 30
0.0
  0
POINT
  5
1038
100
AcDbEntity
  8
DEFPOINTS
  6
BYBLOCK
 62
     0
100
AcDbPoint
 10
375.575
 20
-441.0011
 30
0.0
  0
POINT
  5
1039
100
AcDbEntity
  8
DEFPOINTS
  6
BYBLOCK
 62
     0
100
AcDbPoint
 10
375.575
 20
-478.7392
 30
0.0
  0
ENDBLK
  5
103B
100
AcDbEntity
  8
0
100
AcDbBlockEnd
  0
BLOCK
  5
1044
100
AcDbEntity
  8
0
100
AcDbBlockBegin
  2
*D20
 70
     1
 10
0.0
 20
0.0
 30
0.0
  3
*D20
  1

  0
LINE
  5
103D
100
AcDbEntity
  8
0
  6
BYBLOCK
 62
     0
100
AcDbLine
 10
397.791604
 20
-412.861877
 30
0.0
 11
420.669829
 21
-409.377443
 31
0.0
  0
LINE
  5
103E
100
AcDbEntity
  8
0
  6
BYBLOCK
 62
     0
100
AcDbLine
 10
435.358396
 20
-407.140323
 30
0.0
 11
432.25057
 21
-407.613656
 31
0.0
  0
MTEXT
  5
103F
100
AcDbEntity
  8
0
  6
BYBLOCK
 62
     0
100
AcDbMText
 10
426.2475
 20
-407.099
 30
0.0
 40
3.0
 41
0.0
 71
     5
 72
     1
  1
\A1;\U+220544
  7
ROMANS
 11
0.9886
 21
0.150567
 31
0.0
  0
SOLID
  5
1040
100
AcDbEntity
  8
0
  6
BYBLOCK
 62
     0
100
AcDbTrace
 10
397.716321
 20
-412.367577
 30
0.0
 11
397.866888
 21
-413.356177
 31
0.0
 12
394.825805
 22
-413.313578
 32
0.0
 13
394.825805
 23
-413.313578
 33
0.0
  0
SOLID
  5
1041
100
AcDbEntity
  8
0
  6
BYBLOCK
 62
     0
100
AcDbTrace
 10
435.283112
 20
-406.646023
 30
0.0
 11
435.433679
 21
-407.634623
 31
0.0
 12
438.324195
 22
-406.688622
 32
0.0
 13
438.324195
 23
-406.688622
 33
0.0
  0
POINT
  5
1042
100
AcDbEntity
  8
DEFPOINTS
  6
BYBLOCK
 62
     0
100
AcDbPoint
 10
438.324195
 20
-406.688622
 30
0.0
  0
POINT
  5
1043
100
AcDbEntity
  8
DEFPOINTS
  6
BYBLOCK
 62
     0
100
AcDbPoint
 10
394.825805
 20
-413.313578
 30
0.0
  0
ENDBLK
  5
1045
100
AcDbEntity
  8
0
100
AcDbBlockEnd
  0
BLOCK
  5
1052
100
AcDbEntity
  8
0
100
AcDbBlockBegin
  2
*D21
 70
     1
 10
0.0
 20
0.0
 30
0.0
  3
*D21
  1

  0
LINE
  5
1047
100
AcDbEntity
  8
0
  6
BYBLOCK
 62
     0
100
AcDbLine
 10
522.3476
 20
-309.0011
 30
0.0
 11
522.3476
 21
-283.1131
 31
0.0
  0
LINE
  5
1048
100
AcDbEntity
  8
0
  6
BYBLOCK
 62
     0
100
AcDbLine
 10
532.3476
 20
-309.0011
 30
0.0
 11
532.3476
 21
-283.1131
 31
0.0
  0
LINE
  5
1049
100
AcDbEntity
  8
0
  6
BYBLOCK
 62
     0
100
AcDbLine
 10
519.3476
 20
-284.9131
 30
0.0
 11
516.3476
 21
-284.9131
 31
0.0
  0
LINE
  5
104A
100
AcDbEntity
  8
0
  6
BYBLOCK
 62
     0
100
AcDbLine
 10
535.3476
 20
-284.9131
 30
0.0
 11
538.3476
 21
-284.9131
 31
0.0
  0
LINE
  5
104B
100
AcDbEntity
  8
0
  6
BYBLOCK
 62
     0
100
AcDbLine
 10
522.3476
 20
-284.9131
 30
0.0
 11
532.3476
 21
-284.9131
 31
0.0
  0
SOLID
  5
104C
100
AcDbEntity
  8
0
  6
BYBLOCK
 62
     0
100
AcDbTrace
 10
519.3476
 20
-284.4131
 30
0.0
 11
519.3476
 21
-285.4131
 31
0.0
 12
522.3476
 22
-284.9131
 32
0.0
 13
522.3476
 23
-284.9131
 33
0.0
  0
SOLID
  5
104D
100
AcDbEntity
  8
0
  6
BYBLOCK
 62
     0
100
AcDbTrace
 10
535.3476
 20
-284.4131
 30
0.0
 11
535.3476
 21
-285.4131
 31
0.0
 12
532.3476
 22
-284.9131
 32
0.0
 13
532.3476
 23
-284.9131
 33
0.0
  0
MTEXT
  5
104E
100
AcDbEntity
  8
0
  6
BYBLOCK
 62
     0
100
AcDbMText
 10
527.3476
 20
-281.4131
 30
0.0
 40
3.0
 41
0.0
 71
     5
 72
     1
  1
\A1;10
  7
ROMANS
  0
POINT
  5
104F
100
AcDbEntity
  8
DEFPOINTS
  6
BYBLOCK
 62
     0
100
AcDbPoint
 10
522.3476
 20
-311.0011
 30
0.0
  0
POINT
  5
1050
100
AcDbEntity
  8
DEFPOINTS
  6
BYBLOCK
 62
     0
100
AcDbPoint
 10
532.3476
 20
-311.0011
 30
0.0
  0
POINT
  5
1051
100
AcDbEntity
  8
DEFPOINTS
  6
BYBLOCK
 62
     0
100
AcDbPoint
 10
532.3476
 20
-284.9131
 30
0.0
  0
ENDBLK
  5
1053
100
AcDbEntity
  8
0
100
AcDbBlockEnd
  0
BLOCK
  5
12C4
100
AcDbEntity
  8
0
100
AcDbBlockBegin
  2
A$C582166C3
 70
     0
 10
0.0
 20
0.0
 30
0.0
  3
A$C582166C3
  1

  0
LINE
  5
1056
100
AcDbEntity
  8
EJES
100
AcDbLine
 10
0.982365
 20
398.743699
 30
0.0
 11
156.269092
 21
398.743699
 31
0.0
  0
LINE
  5
1057
100
AcDbEntity
  8
EJES
100
AcDbLine
 10
14.520288
 20
478.743699
 30
0.0
 11
156.269092
 21
478.743699
 31
0.0
  0
HATCH
  5
1058
100
AcDbEntity
  8
COTAS
100
AcDbHatch
 10
0.0
 20
0.0
 30
0.0
210
0.0
220
0.0
230
1.0
  2
_U
 70
     0
 71
     0
 91
        2
 92
        7
 72
     0
 73
     1
 93
        4
 10
149.269091866817
 20
455.7436987417861
 10
149.269091866817
 20
458.743698741786
 10
11.34128268111507
 20
458.7436987417861
 10
10.84941257077494
 20
455.7436987417861
 97
        0
 92
        7
 72
     0
 73
     1
 93
        4
 10
149.269091866817
 20
418.7436987417861
 10
149.269091866817
 20
421.743698741786
 10
5.27488465358698
 20
421.7436987417861
 10
4.783014543246878
 20
418.7436987417861
 97
        0
 75
     0
 76
     0
 52
45.0
 41
3.0
 77
     0
 78
     1
 53
45.0
 43
113.269092
 44
693.743699
 45
-2.121320343559642
 46
2.121320343559642
 79
     0
 47
0.181685
 98
        2
 10
110.699722
 20
456.615779
 10
122.154542
 20
419.551999
  0
LINE
  5
1059
100
AcDbEntity
  8
0
100
AcDbLine
 10
5.267662
 20
421.743699
 30
0.0
 11
149.269092
 21
421.743699
 31
0.0
  0
LINE
  5
105A
100
AcDbEntity
  8
0
100
AcDbLine
 10
10.809731
 20
455.743699
 30
0.0
 11
149.269092
 21
455.743699
 31
0.0
  0
LINE
  5
105B
100
AcDbEntity
  8
0
100
AcDbLine
 10
4.778656
 20
418.743699
 30
0.0
 11
197.269092
 21
418.743699
 31
0.0
  0
LINE
  5
105C
100
AcDbEntity
  8
0
100
AcDbLine
 10
11.298737
 20
458.743699
 30
0.0
 11
197.269092
 21
458.743699
 31
0.0
  0
LINE
  5
105D
100
AcDbEntity
  8
EJES
100
AcDbLine
 10
0.645042
 20
438.743699
 30
0.0
 11
240.269092
 21
438.743699
 31
0.0
  0
LINE
  5
105E
100
AcDbEntity
  8
COTAS
100
AcDbLine
 10
-0.000003
 20
392.938566
 30
0.0
 11
16.062456
 21
487.856876
 31
0.0
  0
LINE
  5
105F
100
AcDbEntity
  8
0
100
AcDbLine
 10
437.769092
 20
458.743699
 30
0.0
 11
626.769092
 21
458.743699
 31
0.0
  0
LINE
  5
1060
100
AcDbEntity
  8
0
100
AcDbLine
 10
437.769092
 20
508.743699
 30
0.0
 11
626.769092
 21
508.743699
 31
0.0
  0
LINE
  5
1061
100
AcDbEntity
  8
EJES
100
AcDbLine
 10
419.269092
 20
483.743699
 30
0.0
 11
899.269092
 21
483.743699
 31
0.0
  0
TEXT
  5
1062
100
AcDbEntity
  8
COTAS
100
AcDbText
 10
312.826692
 20
227.473099
 30
0.0
 40
3.0
  1
MATERIAL ALUMINIO
  7
ROMANS
100
AcDbText
  0
TEXT
  5
1063
100
AcDbEntity
  8
COTAS
100
AcDbText
 10
312.826692
 20
236.871999
 30
0.0
 40
3.0
  1
CANTIDAD: 2 PLACAS
  7
ROMANS
100
AcDbText
  0
DIMENSION
  5
1064
100
AcDbEntity
  8
COTAS
100
AcDbDimension
  2
*D19
 10
228.155392
 20
7.799999
 30
0.0
 11
237.655392
 21
11.299999
 31
0.0
 12
-147.419608
 22
486.539199
 32
0.0
  1
=
  3
NIASA
100
AcDbAlignedDimension
 13
247.155392
 23
7.799999
 33
0.0
 14
228.155392
 24
45.538099
 34
0.0
100
AcDbRotatedDimension
  0
DIMENSION
  5
1065
100
AcDbEntity
  8
COTAS
100
AcDbDimension
  2
*D18
 10
310.155392
 20
7.799999
 30
0.0
 11
300.655392
 21
11.299999
 31
0.0
 12
-147.419608
 22
486.539199
 32
0.0
  1
=
  3
NIASA
100
AcDbAlignedDimension
 13
291.155392
 23
7.799999
 33
0.0
 14
310.155392
 24
45.538099
 34
0.0
100
AcDbRotatedDimension
  0
DIMENSION
  5
1066
100
AcDbEntity
  8
COTAS
100
AcDbDimension
  2
*D14
 10
291.155392
 20
7.799999
 30
0.0
 11
269.155392
 21
1.499999
 31
0.0
 12
-147.419608
 22
486.539199
 32
0.0
  1
CUADRADO 44 mm.
  3
NIASA
100
AcDbAlignedDimension
 13
247.155392
 23
46.045599
 33
0.0
 14
291.155392
 24
46.045599
 34
0.0
100
AcDbRotatedDimension
  0
DIMENSION
  5
1067
100
AcDbEntity
  8
COTAS
100
AcDbDimension
  2
*D12
 10
191.190192
 20
45.538099
 30
0.0
 11
187.690192
 21
110.538099
 31
0.0
 12
-147.419608
 22
486.539199
 32
0.0
  1
130
  3
NIASA
100
AcDbAlignedDimension
 13
228.155392
 23
175.538099
 33
0.0
 14
228.155392
 24
45.538099
 34
0.0
 50
90.0
100
AcDbRotatedDimension
  0
LINE
  5
1068
100
AcDbEntity
  8
0
100
AcDbLine
 10
310.155392
 20
175.538099
 30
0.0
 11
310.155392
 21
45.538099
 31
0.0
  0
LINE
  5
1069
100
AcDbEntity
  8
0
100
AcDbLine
 10
228.155392
 20
175.538099
 30
0.0
 11
228.155392
 21
45.538099
 31
0.0
  0
DIMENSION
  5
106A
100
AcDbEntity
  8
COTAS
100
AcDbDimension
  2
*D20
 10
247.406197
 20
73.22562
 30
0.0
 11
278.827892
 21
79.440199
 31
0.0
 12
-147.419608
 22
486.539199
 32
0.0
 70
   131
  1
%%C44
  3
NIASA
100
AcDbDiametricDimension
 15
290.904587
 25
79.850577
 35
0.0
 40
0.0
1001
ACAD
1000
DSTYLE
1002
{
1070
   288
1070
     1
1002
}
  0
CIRCLE
  5
106B
100
AcDbEntity
  8
AME_FRZ
100
AcDbCircle
 10
269.155392
 20
76.538099
 30
0.0
 40
22.0
  0
LINE
  5
106C
100
AcDbEntity
  8
EJES
100
AcDbLine
 10
250.655392
 20
76.538099
 30
0.0
 11
287.655392
 21
76.538099
 31
0.0
  0
LINE
  5
106D
100
AcDbEntity
  8
0
100
AcDbLine
 10
228.155392
 20
45.538099
 30
0.0
 11
310.155392
 21
45.538099
 31
0.0
  0
CIRCLE
  5
106E
100
AcDbEntity
  8
AME_FRZ
100
AcDbCircle
 10
247.155392
 20
98.538099
 30
0.0
 40
7.5
  0
CIRCLE
  5
106F
100
AcDbEntity
  8
AME_FRZ
100
AcDbCircle
 10
247.155392
 20
98.538099
 30
0.0
 40
4.5
  0
LINE
  5
1070
100
AcDbEntity
  8
EJES
100
AcDbLine
 10
247.155392
 20
107.030599
 30
0.0
 11
247.155392
 21
90.045599
 31
0.0
  0
DIMENSION
  5
1071
100
AcDbEntity
  8
COTAS
100
AcDbDimension
  2
*D13
 10
214.259292
 20
45.538099
 30
0.0
 11
210.759292
 21
61.038099
 31
0.0
 12
-147.419608
 22
486.539199
 32
0.0
  1
31
  3
NIASA
100
AcDbAlignedDimension
 13
250.655392
 23
76.538099
 33
0.0
 14
228.155392
 24
45.538099
 34
0.0
 50
90.0
100
AcDbRotatedDimension
  0
CIRCLE
  5
1072
100
AcDbEntity
  8
AME_FRZ
100
AcDbCircle
 10
247.155392
 20
54.538099
 30
0.0
 40
7.5
  0
CIRCLE
  5
1073
100
AcDbEntity
  8
AME_FRZ
100
AcDbCircle
 10
247.155392
 20
54.538099
 30
0.0
 40
4.5
  0
LINE
  5
1074
100
AcDbEntity
  8
EJES
100
AcDbLine
 10
255.647892
 20
54.538099
 30
0.0
 11
238.662892
 21
54.538099
 31
0.0
  0
LINE
  5
1075
100
AcDbEntity
  8
EJES
100
AcDbLine
 10
247.155392
 20
46.045599
 30
0.0
 11
247.155392
 21
63.030599
 31
0.0
  0
LINE
  5
1076
100
AcDbEntity
  8
EJES
100
AcDbLine
 10
255.647892
 20
98.538099
 30
0.0
 11
238.662892
 21
98.538099
 31
0.0
  0
CIRCLE
  5
1077
100
AcDbEntity
  8
AME_FRZ
100
AcDbCircle
 10
291.155392
 20
98.538099
 30
0.0
 40
7.5
  0
CIRCLE
  5
1078
100
AcDbEntity
  8
AME_FRZ
100
AcDbCircle
 10
291.155392
 20
98.538099
 30
0.0
 40
4.5
  0
LINE
  5
1079
100
AcDbEntity
  8
EJES
100
AcDbLine
 10
291.155392
 20
107.030599
 30
0.0
 11
291.155392
 21
90.045599
 31
0.0
  0
CIRCLE
  5
107A
100
AcDbEntity
  8
AME_FRZ
100
AcDbCircle
 10
291.155392
 20
54.538099
 30
0.0
 40
7.5
  0
LINE
  5
107B
100
AcDbEntity
  8
EJES
100
AcDbLine
 10
282.662892
 20
54.538099
 30
0.0
 11
299.647892
 21
54.538099
 31
0.0
  0
LINE
  5
107C
100
AcDbEntity
  8
EJES
100
AcDbLine
 10
269.155392
 20
95.038099
 30
0.0
 11
269.155392
 21
58.038099
 31
0.0
  0
CIRCLE
  5
107D
100
AcDbEntity
  8
AME_FRZ
100
AcDbCircle
 10
291.155392
 20
54.538099
 30
0.0
 40
4.5
  0
LINE
  5
107E
100
AcDbEntity
  8
EJES
100
AcDbLine
 10
291.155392
 20
46.045599
 30
0.0
 11
291.155392
 21
63.030599
 31
0.0
  0
LINE
  5
107F
100
AcDbEntity
  8
EJES
100
AcDbLine
 10
282.662892
 20
98.538099
 30
0.0
 11
299.647892
 21
98.538099
 31
0.0
  0
DIMENSION
  5
1080
100
AcDbEntity
  8
COTAS
100
AcDbDimension
  2
*D11
 10
310.155392
 20
206.398599
 30
0.0
 11
269.155392
 21
209.898599
 31
0.0
 12
-147.419608
 22
486.539199
 32
0.0
  1
82
  3
NIASA
100
AcDbAlignedDimension
 13
228.155392
 23
175.538099
 33
0.0
 14
310.155392
 24
175.538099
 34
0.0
100
AcDbRotatedDimension
  0
LINE
  5
1081
100
AcDbEntity
  8
0
100
AcDbLine
 10
228.155392
 20
175.538099
 30
0.0
 11
310.155392
 21
175.538099
 31
0.0
  0
LINE
  5
1082
100
AcDbEntity
  8
0
100
AcDbLine
 10
384.927992
 20
175.538099
 30
0.0
 11
384.927992
 21
45.538099
 31
0.0
  0
LINE
  5
1083
100
AcDbEntity
  8
0
100
AcDbLine
 10
374.927992
 20
175.538099
 30
0.0
 11
374.927992
 21
45.538099
 31
0.0
  0
DIMENSION
  5
1084
100
AcDbEntity
  8
COTAS
100
AcDbDimension
  2
*D17
 10
384.927992
 20
82.944999
 30
0.0
 11
393.927992
 21
86.444999
 31
0.0
 12
-147.419608
 22
486.539199
 32
0.0
  1
5
  3
NIASA
100
AcDbAlignedDimension
 13
379.427992
 23
91.038099
 33
0.0
 14
384.927992
 24
91.038099
 34
0.0
100
AcDbRotatedDimension
1001
ACAD
1000
DSTYLE
1002
{
1070
   287
1070
     3
1002
}
  0
DIMENSION
  5
1085
100
AcDbEntity
  8
COTAS
100
AcDbDimension
  2
*D15
 10
402.903792
 20
91.038099
 30
0.0
 11
399.403792
 21
98.538099
 31
0.0
 12
-147.419608
 22
486.539199
 32
0.0
  1
%%C15
  3
NIASA
100
AcDbAlignedDimension
 13
384.927992
 23
106.038099
 33
0.0
 14
384.927992
 24
91.038099
 34
0.0
 50
90.0
100
AcDbRotatedDimension
  0
LINE
  5
1086
100
AcDbEntity
  8
EJES
100
AcDbLine
 10
359.473392
 20
76.538099
 30
0.0
 11
396.473392
 21
76.538099
 31
0.0
  0
DIMENSION
  5
1087
100
AcDbEntity
  8
COTAS
100
AcDbDimension
  2
*D16
 10
353.468692
 20
94.038099
 30
0.0
 11
349.968692
 21
98.538099
 31
0.0
 12
-147.419608
 22
486.539199
 32
0.0
  1
%%C9
  3
NIASA
100
AcDbAlignedDimension
 13
374.927992
 23
103.038099
 33
0.0
 14
374.927992
 24
94.038099
 34
0.0
 50
90.0
100
AcDbRotatedDimension
  0
LINE
  5
1088
100
AcDbEntity
  8
TRAZOS
100
AcDbLine
 10
379.427992
 20
106.038099
 30
0.0
 11
379.427992
 21
91.038099
 31
0.0
  0
LINE
  5
1089
100
AcDbEntity
  8
TRAZOS
100
AcDbLine
 10
374.927992
 20
54.538099
 30
0.0
 11
384.927992
 21
54.538099
 31
0.0
  0
LINE
  5
108A
100
AcDbEntity
  8
0
100
AcDbLine
 10
374.927992
 20
45.538099
 30
0.0
 11
384.927992
 21
45.538099
 31
0.0
  0
LINE
  5
108B
100
AcDbEntity
  8
TRAZOS
100
AcDbLine
 10
374.927992
 20
94.038099
 30
0.0
 11
379.427992
 21
94.038099
 31
0.0
  0
LINE
  5
108C
100
AcDbEntity
  8
TRAZOS
100
AcDbLine
 10
379.427992
 20
91.038099
 30
0.0
 11
384.927992
 21
91.038099
 31
0.0
  0
LINE
  5
108D
100
AcDbEntity
  8
TRAZOS
100
AcDbLine
 10
374.927992
 20
103.038099
 30
0.0
 11
379.427992
 21
103.038099
 31
0.0
  0
LINE
  5
108E
100
AcDbEntity
  8
TRAZOS
100
AcDbLine
 10
374.927992
 20
98.538099
 30
0.0
 11
384.927992
 21
98.538099
 31
0.0
  0
LINE
  5
108F
100
AcDbEntity
  8
TRAZOS
100
AcDbLine
 10
379.427992
 20
106.038099
 30
0.0
 11
384.927992
 21
106.038099
 31
0.0
  0
DIMENSION
  5
1090
100
AcDbEntity
  8
COTAS
100
AcDbDimension
  2
*D21
 10
384.927992
 20
201.626099
 30
0.0
 11
379.927992
 21
205.126099
 31
0.0
 12
-147.419608
 22
486.539199
 32
0.0
  1
10
  3
NIASA
100
AcDbAlignedDimension
 13
374.927992
 23
175.538099
 33
0.0
 14
384.927992
 24
175.538099
 34
0.0
100
AcDbRotatedDimension
  0
LINE
  5
1091
100
AcDbEntity
  8
0
100
AcDbLine
 10
374.927992
 20
175.538099
 30
0.0
 11
384.927992
 21
175.538099
 31
0.0
  0
LINE
  5
1092
100
AcDbEntity
  8
EJES
100
AcDbLine
 10
301.769092
 20
438.743699
 30
0.0
 11
377.269092
 21
438.743699
 31
0.0
  0
ARC
  5
1093
100
AcDbEntity
  8
0
100
AcDbCircle
 10
330.769092
 20
438.743699
 30
0.0
 40
2.5
100
AcDbArc
 50
90.0
 51
270.0
  0
LINE
  5
1094
100
AcDbEntity
  8
0
100
AcDbLine
 10
322.269092
 20
430.743699
 30
0.0
 11
366.269092
 21
430.743699
 31
0.0
  0
LINE
  5
1095
100
AcDbEntity
  8
0
100
AcDbLine
 10
322.269092
 20
446.743699
 30
0.0
 11
366.269092
 21
446.743699
 31
0.0
  0
LINE
  5
1096
100
AcDbEntity
  8
EJES
100
AcDbLine
 10
207.269092
 20
483.743699
 30
0.0
 11
332.269092
 21
483.743699
 31
0.0
  0
LINE
  5
1097
100
AcDbEntity
  8
0
100
AcDbLine
 10
156.269092
 20
478.743699
 30
0.0
 11
156.269092
 21
398.743699
 31
0.0
  0
CIRCLE
  5
1098
100
AcDbEntity
  8
EJES
100
AcDbCircle
 10
269.769092
 20
483.743699
 30
0.0
 40
33.5
  0
CIRCLE
  5
1099
100
AcDbEntity
  8
0
100
AcDbCircle
 10
269.769092
 20
483.743699
 30
0.0
 40
45.0
  0
LINE
  5
109A
100
AcDbEntity
  8
EJES
100
AcDbLine
 10
269.769092
 20
546.243699
 30
0.0
 11
269.769092
 21
421.243699
 31
0.0
  0
LINE
  5
109B
100
AcDbEntity
  8
0
100
AcDbLine
 10
322.269092
 20
537.743699
 30
0.0
 11
322.269092
 21
407.743699
 31
0.0
  0
LINE
  5
109C
100
AcDbEntity
  8
0
100
AcDbLine
 10
217.269092
 20
537.743699
 30
0.0
 11
217.269092
 21
407.743699
 31
0.0
  0
LINE
  5
109D
100
AcDbEntity
  8
0
100
AcDbLine
 10
208.769092
 20
441.243699
 30
0.0
 11
177.769092
 21
441.243699
 31
0.0
  0
LINE
  5
109E
100
AcDbEntity
  8
0
100
AcDbLine
 10
208.769092
 20
436.243699
 30
0.0
 11
177.769092
 21
436.243699
 31
0.0
  0
LINE
  5
109F
100
AcDbEntity
  8
0
100
AcDbLine
 10
173.269092
 20
430.743699
 30
0.0
 11
217.269092
 21
430.743699
 31
0.0
  0
LINE
  5
10A0
100
AcDbEntity
  8
0
100
AcDbLine
 10
173.269092
 20
446.743699
 30
0.0
 11
217.269092
 21
446.743699
 31
0.0
  0
LINE
  5
10A1
100
AcDbEntity
  8
0
100
AcDbLine
 10
131.269092
 20
455.743699
 30
0.0
 11
131.269092
 21
421.743699
 31
0.0
  0
LINE
  5
10A2
100
AcDbEntity
  8
EJES
100
AcDbLine
 10
140.269092
 20
447.679991
 30
0.0
 11
140.269092
 21
429.807406
 31
0.0
  0
LINE
  5
10A3
100
AcDbEntity
  8
0
100
AcDbLine
 10
149.269092
 20
458.743699
 30
0.0
 11
149.269092
 21
418.743699
 31
0.0
  0
CIRCLE
  5
10A4
100
AcDbEntity
  8
0
100
AcDbCircle
 10
140.269092
 20
438.743699
 30
0.0
 40
2.5
  0
LINE
  5
10A5
100
AcDbEntity
  8
0
100
AcDbLine
 10
197.269092
 20
458.743699
 30
0.0
 11
197.269092
 21
418.743699
 31
0.0
  0
LINE
  5
10A6
100
AcDbEntity
  8
0
100
AcDbLine
 10
173.269092
 20
430.743699
 30
0.0
 11
173.269092
 21
446.743699
 31
0.0
  0
LINE
  5
10A7
100
AcDbEntity
  8
0
100
AcDbLine
 10
172.269092
 20
458.743699
 30
0.0
 11
172.269092
 21
418.743699
 31
0.0
  0
ARC
  5
10A8
100
AcDbEntity
  8
0
100
AcDbCircle
 10
177.769092
 20
438.743699
 30
0.0
 40
2.5
100
AcDbArc
 50
90.0
 51
270.0
  0
LINE
  5
10A9
100
AcDbEntity
  8
0
100
AcDbLine
 10
172.269092
 20
431.743699
 30
0.0
 11
173.269092
 21
430.743699
 31
0.0
  0
LINE
  5
10AA
100
AcDbEntity
  8
0
100
AcDbLine
 10
172.269092
 20
445.743699
 30
0.0
 11
173.269092
 21
446.743699
 31
0.0
  0
CIRCLE
  5
10AB
100
AcDbEntity
  8
0
100
AcDbCircle
 10
269.769092
 20
450.243699
 30
0.0
 40
5.5
  0
LINE
  5
10AC
100
AcDbEntity
  8
0
100
AcDbLine
 10
217.269092
 20
407.743699
 30
0.0
 11
322.269092
 21
407.743699
 31
0.0
  0
CIRCLE
  5
10AD
100
AcDbEntity
  8
0
100
AcDbCircle
 10
229.269092
 20
419.743699
 30
0.0
 40
5.0
  0
LINE
  5
10AE
100
AcDbEntity
  8
EJES
100
AcDbLine
 10
229.269092
 20
407.743699
 30
0.0
 11
229.269092
 21
433.243699
 31
0.0
  0
CIRCLE
  5
10AF
100
AcDbEntity
  8
0
100
AcDbCircle
 10
229.269092
 20
419.743699
 30
0.0
 40
4.0
  0
LINE
  5
10B0
100
AcDbEntity
  8
EJES
100
AcDbLine
 10
242.769092
 20
419.743699
 30
0.0
 11
217.269092
 21
419.743699
 31
0.0
  0
ARC
  5
10B1
100
AcDbEntity
  8
0
100
AcDbCircle
 10
208.769092
 20
438.743699
 30
0.0
 40
2.5
100
AcDbArc
 50
270.0
 51
90.0
  0
CIRCLE
  5
10B2
100
AcDbEntity
  8
0
100
AcDbCircle
 10
310.269092
 20
419.743699
 30
0.0
 40
5.0
  0
LINE
  5
10B3
100
AcDbEntity
  8
EJES
100
AcDbLine
 10
310.269092
 20
407.743699
 30
0.0
 11
310.269092
 21
433.243699
 31
0.0
  0
LINE
  5
10B4
100
AcDbEntity
  8
EJES
100
AcDbLine
 10
296.769092
 20
419.743699
 30
0.0
 11
322.269092
 21
419.743699
 31
0.0
  0
CIRCLE
  5
10B5
100
AcDbEntity
  8
0
100
AcDbCircle
 10
310.269092
 20
419.743699
 30
0.0
 40
4.0
  0
CIRCLE
  5
10B6
100
AcDbEntity
  8
0
100
AcDbCircle
 10
269.769092
 20
517.243699
 30
0.0
 40
5.5
  0
LINE
  5
10B7
100
AcDbEntity
  8
0
100
AcDbLine
 10
217.269092
 20
537.743699
 30
0.0
 11
322.269092
 21
537.743699
 31
0.0
  0
CIRCLE
  5
10B8
100
AcDbEntity
  8
0
100
AcDbCircle
 10
229.269092
 20
525.743699
 30
0.0
 40
5.0
  0
CIRCLE
  5
10B9
100
AcDbEntity
  8
0
100
AcDbCircle
 10
229.269092
 20
525.743699
 30
0.0
 40
4.0
  0
LINE
  5
10BA
100
AcDbEntity
  8
EJES
100
AcDbLine
 10
229.269092
 20
537.743699
 30
0.0
 11
229.269092
 21
512.243699
 31
0.0
  0
CIRCLE
  5
10BB
100
AcDbEntity
  8
0
100
AcDbCircle
 10
236.269092
 20
483.743699
 30
0.0
 40
5.5
  0
LINE
  5
10BC
100
AcDbEntity
  8
EJES
100
AcDbLine
 10
242.769092
 20
525.743699
 30
0.0
 11
217.269092
 21
525.743699
 31
0.0
  0
CIRCLE
  5
10BD
100
AcDbEntity
  8
0
100
AcDbCircle
 10
310.269092
 20
525.743699
 30
0.0
 40
4.0
  0
CIRCLE
  5
10BE
100
AcDbEntity
  8
0
100
AcDbCircle
 10
310.269092
 20
525.743699
 30
0.0
 40
5.0
  0
LINE
  5
10BF
100
AcDbEntity
  8
EJES
100
AcDbLine
 10
310.269092
 20
537.743699
 30
0.0
 11
310.269092
 21
512.243699
 31
0.0
  0
CIRCLE
  5
10C0
100
AcDbEntity
  8
0
100
AcDbCircle
 10
303.269092
 20
483.743699
 30
0.0
 40
5.5
  0
LINE
  5
10C1
100
AcDbEntity
  8
EJES
100
AcDbLine
 10
296.769092
 20
525.743699
 30
0.0
 11
322.269092
 21
525.743699
 31
0.0
  0
LINE
  5
10C2
100
AcDbEntity
  8
0
100
AcDbLine
 10
437.769092
 20
458.743699
 30
0.0
 11
437.769092
 21
508.743699
 31
0.0
  0
LINE
  5
10C3
100
AcDbEntity
  8
0
100
AcDbLine
 10
436.769092
 20
459.743699
 30
0.0
 11
436.769092
 21
507.743699
 31
0.0
  0
LINE
  5
10C4
100
AcDbEntity
  8
0
100
AcDbLine
 10
330.769092
 20
436.243699
 30
0.0
 11
361.769092
 21
436.243699
 31
0.0
  0
LINE
  5
10C5
100
AcDbEntity
  8
0
100
AcDbLine
 10
330.769092
 20
441.243699
 30
0.0
 11
361.769092
 21
441.243699
 31
0.0
  0
LINE
  5
10C6
100
AcDbEntity
  8
0
100
AcDbLine
 10
366.269092
 20
430.743699
 30
0.0
 11
366.269092
 21
446.743699
 31
0.0
  0
LINE
  5
10C7
100
AcDbEntity
  8
0
100
AcDbLine
 10
367.269092
 20
445.743699
 30
0.0
 11
367.269092
 21
431.743699
 31
0.0
  0
ARC
  5
10C8
100
AcDbEntity
  8
0
100
AcDbCircle
 10
361.769092
 20
438.743699
 30
0.0
 40
2.5
100
AcDbArc
 50
270.0
 51
90.0
  0
LINE
  5
10C9
100
AcDbEntity
  8
0
100
AcDbLine
 10
367.269092
 20
431.743699
 30
0.0
 11
366.269092
 21
430.743699
 31
0.0
  0
LINE
  5
10CA
100
AcDbEntity
  8
0
100
AcDbLine
 10
367.269092
 20
445.743699
 30
0.0
 11
366.269092
 21
446.743699
 31
0.0
  0
LINE
  5
10CB
100
AcDbEntity
  8
0
100
AcDbLine
 10
436.769092
 20
459.743699
 30
0.0
 11
437.769092
 21
458.743699
 31
0.0
  0
LINE
  5
10CC
100
AcDbEntity
  8
0
100
AcDbLine
 10
436.769092
 20
507.743699
 30
0.0
 11
437.769092
 21
508.743699
 31
0.0
  0
LINE
  5
10CD
100
AcDbEntity
  8
0
100
AcDbLine
 10
811.769092
 20
471.743699
 30
0.0
 11
866.269092
 21
471.743699
 31
0.0
  0
LINE
  5
10CE
100
AcDbEntity
  8
0
100
AcDbLine
 10
811.769092
 20
495.743699
 30
0.0
 11
866.269092
 21
495.743699
 31
0.0
  0
LINE
  5
10CF
100
AcDbEntity
  8
0
100
AcDbLine
 10
811.769092
 20
468.743699
 30
0.0
 11
866.269092
 21
468.743699
 31
0.0
  0
LINE
  5
10D0
100
AcDbEntity
  8
0
100
AcDbLine
 10
811.769092
 20
498.743699
 30
0.0
 11
866.269092
 21
498.743699
 31
0.0
  0
LINE
  5
10D1
100
AcDbEntity
  8
0
100
AcDbLine
 10
787.784053
 20
476.749943
 30
0.0
 11
787.778943
 21
463.765904
 31
0.0
  0
ARC
  5
10D2
100
AcDbEntity
  8
0
  6
CONTINUOUS
 62
     7
100
AcDbCircle
 10
781.67566
 20
463.763647
 30
0.0
 40
5.0
100
AcDbArc
 50
90.021195
 51
132.531642
  0
LINE
  5
10D3
100
AcDbEntity
  8
0
  6
CONTINUOUS
 62
     7
100
AcDbLine
 10
776.429255
 20
469.313205
 30
0.0
 11
773.730836
 21
466.367288
 31
0.0
  0
LINE
  5
10D4
100
AcDbEntity
  8
0
  6
CONTINUOUS
 62
     7
100
AcDbLine
 10
759.057715
 20
469.306779
 30
0.0
 11
761.758313
 21
466.362859
 31
0.0
  0
LINE
  5
10D5
100
AcDbEntity
  8
0
  6
CONTINUOUS
 62
     7
100
AcDbLine
 10
736.425768
 20
469.302593
 30
0.0
 11
733.726259
 21
466.357675
 31
0.0
  0
ARC
  5
10D6
100
AcDbEntity
  8
0
  6
CONTINUOUS
 62
     7
100
AcDbCircle
 10
713.809875
 20
463.751094
 30
0.0
 40
5.0
100
AcDbArc
 50
47.489553
 51
90.0
  0
LINE
  5
10D7
100
AcDbEntity
  8
0
100
AcDbLine
 10
707.784041
 20
476.737461
 30
0.0
 11
707.778931
 21
463.751094
 31
0.0
  0
LINE
  5
10D8
100
AcDbEntity
  8
0
  6
CONTINUOUS
 62
     7
100
AcDbLine
 10
719.054226
 20
469.302593
 30
0.0
 11
721.753735
 21
466.357675
 31
0.0
  0
LINE
  5
10D9
100
AcDbEntity
  8
EJES
100
AcDbLine
 10
646.769092
 20
537.743699
 30
0.0
 11
646.769092
 21
451.833609
 31
0.0
  0
LINE
  5
10DA
100
AcDbEntity
  8
0
100
AcDbLine
 10
626.769092
 20
537.743699
 30
0.0
 11
626.769092
 21
407.743699
 31
0.0
  0
LINE
  5
10DB
100
AcDbEntity
  8
0
100
AcDbLine
 10
810.769092
 20
460.743699
 30
0.0
 11
810.769092
 21
506.743699
 31
0.0
  0
LINE
  5
10DC
100
AcDbEntity
  8
0
100
AcDbLine
 10
811.769092
 20
505.743699
 30
0.0
 11
811.769092
 21
461.743699
 31
0.0
  0
LINE
  5
10DD
100
AcDbEntity
  8
0
100
AcDbLine
 10
706.769092
 20
537.743699
 30
0.0
 11
706.769092
 21
407.743699
 31
0.0
  0
LINE
  5
10DE
100
AcDbEntity
  8
0
100
AcDbLine
 10
788.769092
 20
537.743699
 30
0.0
 11
788.769092
 21
407.743699
 31
0.0
  0
LINE
  5
10DF
100
AcDbEntity
  8
0
  6
CONTINUOUS
 62
     7
100
AcDbLine
 10
717.188498
 20
467.436865
 30
0.0
 11
720.133417
 21
464.737357
 31
0.0
  0
LINE
  5
10E0
100
AcDbEntity
  8
0
  6
CONTINUOUS
 62
     7
100
AcDbLine
 10
717.188498
 20
450.065324
 30
0.0
 11
720.133417
 21
452.764832
 31
0.0
  0
LINE
  5
10E1
100
AcDbEntity
  8
0
  6
CONTINUOUS
 62
     7
100
AcDbLine
 10
717.754793
 20
433.736298
 30
0.0
 11
722.749794
 21
433.736298
 31
0.0
  0
LINE
  5
10E2
100
AcDbEntity
  8
0
  6
CONTINUOUS
 62
     7
100
AcDbLine
 10
717.754793
 20
443.736298
 30
0.0
 11
722.749794
 21
443.736298
 31
0.0
  0
LINE
  5
10E3
100
AcDbEntity
  8
0
  6
CONTINUOUS
 62
     7
100
AcDbLine
 10
717.188498
 20
427.407272
 30
0.0
 11
720.133417
 21
424.707763
 31
0.0
  0
LINE
  5
10E4
100
AcDbEntity
  8
0
  6
CONTINUOUS
 62
     7
100
AcDbLine
 10
717.188498
 20
410.03573
 30
0.0
 11
720.133417
 21
412.735239
 31
0.0
  0
ARC
  5
10E5
100
AcDbEntity
  8
0
  6
CONTINUOUS
 62
     7
100
AcDbCircle
 10
718.76959
 20
403.236298
 30
0.0
 40
1.0
100
AcDbArc
 50
180.0
 51
0.0
  0
ARC
  5
10E6
100
AcDbEntity
  8
0
  6
CONTINUOUS
 62
     7
100
AcDbCircle
 10
722.76959
 20
404.791379
 30
0.0
 40
5.0
100
AcDbArc
 50
137.489553
 51
180.0
  0
LINE
  5
10E7
100
AcDbEntity
  8
0
100
AcDbLine
 10
709.754501
 20
398.736667
 30
0.0
 11
722.76959
 21
398.739074
 31
0.0
  0
LINE
  5
10E8
100
AcDbEntity
  8
EJES
100
AcDbLine
 10
696.769092
 20
419.743699
 30
0.0
 11
731.769092
 21
419.743699
 31
0.0
  0
LINE
  5
10E9
100
AcDbEntity
  8
0
100
AcDbLine
 10
626.769092
 20
407.743699
 30
0.0
 11
788.769092
 21
407.743699
 31
0.0
  0
ARC
  5
10EA
100
AcDbEntity
  8
0
  6
CONTINUOUS
 62
     7
100
AcDbCircle
 10
713.809875
 20
413.721501
 30
0.0
 40
5.0
100
AcDbArc
 50
270.0
 51
312.510447
  0
LINE
  5
10EB
100
AcDbEntity
  8
0
  6
CONTINUOUS
 62
     7
100
AcDbLine
 10
713.754793
 20
413.721501
 30
0.0
 11
713.754793
 21
410.721501
 31
0.0
  0
ARC
  5
10EC
100
AcDbEntity
  8
0
  6
CONTINUOUS
 62
     7
100
AcDbCircle
 10
712.254793
 20
409.721501
 30
0.0
 40
1.0
100
AcDbArc
 50
90.0
 51
270.0
  0
LINE
  5
10ED
100
AcDbEntity
  8
0
  6
CONTINUOUS
 62
     7
100
AcDbLine
 10
712.254793
 20
410.721501
 30
0.0
 11
713.754793
 21
410.721501
 31
0.0
  0
LINE
  5
10EE
100
AcDbEntity
  8
0
  6
CONTINUOUS
 62
     7
100
AcDbLine
 10
712.254793
 20
408.721501
 30
0.0
 11
713.809875
 21
408.721501
 31
0.0
  0
LINE
  5
10EF
100
AcDbEntity
  8
0
  6
CONTINUOUS
 62
     7
100
AcDbLine
 10
707.759241
 20
413.721501
 30
0.0
 11
713.754793
 21
413.721501
 31
0.0
  0
LINE
  5
10F0
100
AcDbEntity
  8
0
  6
CONTINUOUS
 62
     7
100
AcDbLine
 10
717.76959
 20
403.236298
 30
0.0
 11
717.76959
 21
404.791379
 31
0.0
  0
ARC
  5
10F1
100
AcDbEntity
  8
0
100
AcDbCircle
 10
709.754131
 20
400.736667
 30
0.0
 40
2.0
100
AcDbArc
 50
179.977451
 51
270.010597
  0
CIRCLE
  5
10F2
100
AcDbEntity
  8
0
  6
CONTINUOUS
 62
     7
100
AcDbCircle
 10
712.830989
 20
403.736298
 30
0.0
 40
2.75
  0
LINE
  5
10F3
100
AcDbEntity
  8
0
100
AcDbLine
 10
707.759241
 20
413.721501
 30
0.0
 11
707.754131
 21
400.737454
 31
0.0
  0
LINE
  5
10F4
100
AcDbEntity
  8
0
  6
CONTINUOUS
 62
     7
100
AcDbLine
 10
717.754793
 20
443.736298
 30
0.0
 11
717.754793
 21
433.736298
 31
0.0
  0
LINE
  5
10F5
100
AcDbEntity
  8
0
100
AcDbLine
 10
707.774995
 20
453.751094
 30
0.0
 11
707.763177
 21
423.721501
 31
0.0
  0
ARC
  5
10F6
100
AcDbEntity
  8
0
  6
CONTINUOUS
 62
     7
100
AcDbCircle
 10
713.809875
 20
423.721501
 30
0.0
 40
5.0
100
AcDbArc
 50
47.489553
 51
90.0
  0
LINE
  5
10F7
100
AcDbEntity
  8
0
  6
CONTINUOUS
 62
     7
100
AcDbLine
 10
713.754793
 20
423.721501
 30
0.0
 11
713.754793
 21
426.721501
 31
0.0
  0
ARC
  5
10F8
100
AcDbEntity
  8
0
  6
CONTINUOUS
 62
     7
100
AcDbCircle
 10
712.254793
 20
427.721501
 30
0.0
 40
1.0
100
AcDbArc
 50
90.0
 51
270.0
  0
LINE
  5
10F9
100
AcDbEntity
  8
0
  6
CONTINUOUS
 62
     7
100
AcDbLine
 10
707.763177
 20
423.721501
 30
0.0
 11
713.754793
 21
423.721501
 31
0.0
  0
LINE
  5
10FA
100
AcDbEntity
  8
0
  6
CONTINUOUS
 62
     7
100
AcDbLine
 10
712.254793
 20
428.721501
 30
0.0
 11
713.809875
 21
428.721501
 31
0.0
  0
LINE
  5
10FB
100
AcDbEntity
  8
0
  6
CONTINUOUS
 62
     7
100
AcDbLine
 10
712.254793
 20
426.721501
 30
0.0
 11
713.754793
 21
426.721501
 31
0.0
  0
LINE
  5
10FC
100
AcDbEntity
  8
0
  6
CONTINUOUS
 62
     7
100
AcDbLine
 10
712.254793
 20
468.751094
 30
0.0
 11
713.809875
 21
468.751094
 31
0.0
  0
LINE
  5
10FD
100
AcDbEntity
  8
0
  6
CONTINUOUS
 62
     7
100
AcDbLine
 10
713.754793
 20
463.751094
 30
0.0
 11
713.754793
 21
466.751094
 31
0.0
  0
LINE
  5
10FE
100
AcDbEntity
  8
0
  6
CONTINUOUS
 62
     7
100
AcDbLine
 10
707.778931
 20
463.751094
 30
0.0
 11
713.754793
 21
463.751094
 31
0.0
  0
LINE
  5
10FF
100
AcDbEntity
  8
0
  6
CONTINUOUS
 62
     7
100
AcDbLine
 10
712.254793
 20
466.751094
 30
0.0
 11
713.754793
 21
466.751094
 31
0.0
  0
ARC
  5
1100
100
AcDbEntity
  8
0
  6
CONTINUOUS
 62
     7
100
AcDbCircle
 10
712.254793
 20
467.751094
 30
0.0
 40
1.0
100
AcDbArc
 50
90.0
 51
270.0
  0
LINE
  5
1101
100
AcDbEntity
  8
0
  6
CONTINUOUS
 62
     7
100
AcDbLine
 10
713.754793
 20
453.751094
 30
0.0
 11
713.754793
 21
450.751094
 31
0.0
  0
ARC
  5
1102
100
AcDbEntity
  8
0
  6
CONTINUOUS
 62
     7
100
AcDbCircle
 10
713.809875
 20
453.751094
 30
0.0
 40
5.0
100
AcDbArc
 50
270.0
 51
312.510447
  0
ARC
  5
1103
100
AcDbEntity
  8
0
  6
CONTINUOUS
 62
     7
100
AcDbCircle
 10
712.254793
 20
449.751094
 30
0.0
 40
1.0
100
AcDbArc
 50
90.0
 51
270.0
  0
LINE
  5
1104
100
AcDbEntity
  8
0
  6
CONTINUOUS
 62
     7
100
AcDbLine
 10
712.254793
 20
448.751094
 30
0.0
 11
713.809875
 21
448.751094
 31
0.0
  0
LINE
  5
1105
100
AcDbEntity
  8
0
  6
CONTINUOUS
 62
     7
100
AcDbLine
 10
707.774995
 20
453.751094
 30
0.0
 11
713.754793
 21
453.751094
 31
0.0
  0
LINE
  5
1106
100
AcDbEntity
  8
0
  6
CONTINUOUS
 62
     7
100
AcDbLine
 10
712.254793
 20
450.751094
 30
0.0
 11
713.754793
 21
450.751094
 31
0.0
  0
LINE
  5
1107
100
AcDbEntity
  8
0
  6
CONTINUOUS
 62
     7
100
AcDbLine
 10
783.228891
 20
468.764222
 30
0.0
 11
781.67381
 21
468.763646
 31
0.0
  0
LINE
  5
1108
100
AcDbEntity
  8
0
  6
CONTINUOUS
 62
     7
100
AcDbLine
 10
783.229631
 20
466.764222
 30
0.0
 11
781.729631
 21
466.763667
 31
0.0
  0
LINE
  5
1109
100
AcDbEntity
  8
0
  6
CONTINUOUS
 62
     7
100
AcDbLine
 10
783.580617
 20
450.764223
 30
0.0
 11
782.080617
 21
450.763668
 31
0.0
  0
LINE
  5
110A
100
AcDbEntity
  8
0
  6
CONTINUOUS
 62
     7
100
AcDbLine
 10
783.23629
 20
448.764223
 30
0.0
 11
781.681208
 21
448.763648
 31
0.0
  0
ARC
  5
110B
100
AcDbEntity
  8
0
  6
CONTINUOUS
 62
     7
100
AcDbCircle
 10
783.23592
 20
449.764223
 30
0.0
 40
1.0
100
AcDbArc
 50
270.021195
 51
90.021195
  0
LINE
  5
110C
100
AcDbEntity
  8
0
  6
CONTINUOUS
 62
     7
100
AcDbLine
 10
783.243699
 20
428.734631
 30
0.0
 11
781.688618
 21
428.734056
 31
0.0
  0
LINE
  5
110D
100
AcDbEntity
  8
0
  6
CONTINUOUS
 62
     7
100
AcDbLine
 10
783.244439
 20
426.734631
 30
0.0
 11
781.744439
 21
426.734076
 31
0.0
  0
ARC
  5
110E
100
AcDbEntity
  8
0
  6
CONTINUOUS
 62
     7
100
AcDbCircle
 10
783.244069
 20
427.734631
 30
0.0
 40
1.0
100
AcDbArc
 50
270.021195
 51
90.021195
  0
LINE
  5
110F
100
AcDbEntity
  8
0
  6
CONTINUOUS
 62
     7
100
AcDbLine
 10
783.250358
 20
410.734632
 30
0.0
 11
781.750358
 21
410.734077
 31
0.0
  0
LINE
  5
1110
100
AcDbEntity
  8
0
  6
CONTINUOUS
 62
     7
100
AcDbLine
 10
783.251097
 20
408.734632
 30
0.0
 11
781.696016
 21
408.734057
 31
0.0
  0
LINE
  5
1111
100
AcDbEntity
  8
0
100
AcDbLine
 10
772.739994
 20
398.748317
 30
0.0
 11
785.754512
 21
398.750724
 31
0.0
  0
CIRCLE
  5
1112
100
AcDbEntity
  8
0
  6
CONTINUOUS
 62
     7
100
AcDbCircle
 10
782.830617
 20
403.736298
 30
0.0
 40
2.75
  0
LINE
  5
1113
100
AcDbEntity
  8
0
  6
CONTINUOUS
 62
     7
100
AcDbLine
 10
787.759253
 20
413.7363
 30
0.0
 11
781.749248
 21
413.734077
 31
0.0
  0
LINE
  5
1114
100
AcDbEntity
  8
0
  6
CONTINUOUS
 62
     7
100
AcDbLine
 10
787.763189
 20
423.736303
 30
0.0
 11
781.745549
 21
423.734077
 31
0.0
  0
LINE
  5
1115
100
AcDbEntity
  8
0
  6
CONTINUOUS
 62
     7
100
AcDbLine
 10
787.775007
 20
453.765902
 30
0.0
 11
781.73444
 21
453.763668
 31
0.0
  0
LINE
  5
1116
100
AcDbEntity
  8
0
  6
CONTINUOUS
 62
     7
100
AcDbLine
 10
787.778943
 20
463.765904
 30
0.0
 11
781.730741
 21
463.763667
 31
0.0
  0
LINE
  5
1117
100
AcDbEntity
  8
EJES
100
AcDbLine
 10
798.769092
 20
419.743699
 30
0.0
 11
763.769092
 21
419.743699
 31
0.0
  0
ARC
  5
1118
100
AcDbEntity
  8
0
  6
CONTINUOUS
 62
     7
100
AcDbCircle
 10
778.748249
 20
416.432476
 30
0.0
 40
5.0
100
AcDbArc
 50
180.021195
 51
227.510748
  0
LINE
  5
1119
100
AcDbEntity
  8
0
  6
CONTINUOUS
 62
     7
100
AcDbLine
 10
763.566686
 20
418.742148
 30
0.0
 11
757.778003
 21
412.949181
 31
0.0
  0
LINE
  5
111A
100
AcDbEntity
  8
0
  6
CONTINUOUS
 62
     7
100
AcDbLine
 10
731.935501
 20
418.736298
 30
0.0
 11
737.726327
 21
412.945472
 31
0.0
  0
ARC
  5
111B
100
AcDbEntity
  8
0
  6
CONTINUOUS
 62
     7
100
AcDbCircle
 10
716.754793
 20
416.42101
 30
0.0
 40
5.0
100
AcDbArc
 50
312.510447
 51
0.0
  0
LINE
  5
111C
100
AcDbEntity
  8
0
100
AcDbLine
 10
732.76959
 20
398.740924
 30
0.0
 11
762.739994
 21
398.746467
 31
0.0
  0
LINE
  5
111D
100
AcDbEntity
  8
0
  6
CONTINUOUS
 62
     7
100
AcDbLine
 10
742.754793
 20
408.736298
 30
0.0
 11
752.751094
 21
408.738147
 31
0.0
  0
LINE
  5
111E
100
AcDbEntity
  8
0
  6
CONTINUOUS
 62
     7
100
AcDbLine
 10
743.754793
 20
401.236298
 30
0.0
 11
751.753868
 21
401.237777
 31
0.0
  0
LINE
  5
111F
100
AcDbEntity
  8
0
  6
CONTINUOUS
 62
     7
100
AcDbLine
 10
743.754793
 20
406.236298
 30
0.0
 11
751.752019
 21
406.237777
 31
0.0
  0
LINE
  5
1120
100
AcDbEntity
  8
0
  6
CONTINUOUS
 62
     7
100
AcDbLine
 10
736.455361
 20
408.170002
 30
0.0
 11
733.755852
 21
411.114921
 31
0.0
  0
LINE
  5
1121
100
AcDbEntity
  8
0
  6
CONTINUOUS
 62
     7
100
AcDbLine
 10
732.76959
 20
404.736298
 30
0.0
 11
735.76959
 21
404.736298
 31
0.0
  0
ARC
  5
1122
100
AcDbEntity
  8
0
  6
CONTINUOUS
 62
     7
100
AcDbCircle
 10
730.070082
 20
407.736298
 30
0.0
 40
5.0
100
AcDbArc
 50
42.510447
 51
90.0
  0
LINE
  5
1123
100
AcDbEntity
  8
0
  6
CONTINUOUS
 62
     7
100
AcDbLine
 10
727.76959
 20
412.736298
 30
0.0
 11
725.469099
 21
412.736298
 31
0.0
  0
ARC
  5
1124
100
AcDbEntity
  8
0
  6
CONTINUOUS
 62
     7
100
AcDbCircle
 10
725.469099
 20
407.736298
 30
0.0
 40
5.0
100
AcDbArc
 50
90.0
 51
137.489553
  0
LINE
  5
1125
100
AcDbEntity
  8
0
  6
CONTINUOUS
 62
     7
100
AcDbLine
 10
727.76959
 20
412.736298
 30
0.0
 11
730.070082
 21
412.736298
 31
0.0
  0
LINE
  5
1126
100
AcDbEntity
  8
0
  6
CONTINUOUS
 62
     7
100
AcDbLine
 10
732.76959
 20
398.740924
 30
0.0
 11
732.76959
 21
404.736298
 31
0.0
  0
LINE
  5
1127
100
AcDbEntity
  8
0
  6
CONTINUOUS
 62
     7
100
AcDbLine
 10
722.76959
 20
398.739074
 30
0.0
 11
722.76959
 21
404.736298
 31
0.0
  0
LINE
  5
1128
100
AcDbEntity
  8
0
  6
CONTINUOUS
 62
     7
100
AcDbLine
 10
719.76959
 20
403.236298
 30
0.0
 11
719.76959
 21
404.736298
 31
0.0
  0
LINE
  5
1129
100
AcDbEntity
  8
0
  6
CONTINUOUS
 62
     7
100
AcDbLine
 10
722.76959
 20
404.736298
 30
0.0
 11
719.76959
 21
404.736298
 31
0.0
  0
LINE
  5
112A
100
AcDbEntity
  8
0
  6
CONTINUOUS
 62
     7
100
AcDbLine
 10
719.083819
 20
408.170002
 30
0.0
 11
721.783328
 21
411.114921
 31
0.0
  0
LINE
  5
112B
100
AcDbEntity
  8
0
  6
CONTINUOUS
 62
     7
100
AcDbLine
 10
740.488543
 20
414.293475
 30
0.0
 11
739.14054
 21
412.945472
 31
0.0
  0
ARC
  5
112C
100
AcDbEntity
  8
0
  6
CONTINUOUS
 62
     7
100
AcDbCircle
 10
747.754793
 20
438.736298
 30
0.0
 40
25.5
100
AcDbArc
 50
253.44408
 51
258.692271
  0
ARC
  5
112D
100
AcDbEntity
  8
0
  6
CONTINUOUS
 62
     7
100
AcDbCircle
 10
738.433434
 20
413.652579
 30
0.0
 40
1.0
100
AcDbArc
 50
225.0
 51
315.0
  0
LINE
  5
112E
100
AcDbEntity
  8
0
  6
CONTINUOUS
 62
     7
100
AcDbLine
 10
742.754793
 20
413.731298
 30
0.0
 11
742.754793
 21
408.736298
 31
0.0
  0
ARC
  5
112F
100
AcDbEntity
  8
0
  6
CONTINUOUS
 62
     7
100
AcDbCircle
 10
743.754793
 20
403.736298
 30
0.0
 40
2.5
100
AcDbArc
 50
90.0
 51
270.0
  0
LINE
  5
1130
100
AcDbEntity
  8
0
  6
CONTINUOUS
 62
     7
100
AcDbLine
 10
737.76959
 20
403.236298
 30
0.0
 11
737.76959
 21
404.791379
 31
0.0
  0
LINE
  5
1131
100
AcDbEntity
  8
0
  6
CONTINUOUS
 62
     7
100
AcDbLine
 10
735.76959
 20
403.236298
 30
0.0
 11
735.76959
 21
404.736298
 31
0.0
  0
ARC
  5
1132
100
AcDbEntity
  8
0
  6
CONTINUOUS
 62
     7
100
AcDbCircle
 10
736.76959
 20
403.236298
 30
0.0
 40
1.0
100
AcDbArc
 50
180.0
 51
0.0
  0
ARC
  5
1133
100
AcDbEntity
  8
0
  6
CONTINUOUS
 62
     7
100
AcDbCircle
 10
732.76959
 20
404.791379
 30
0.0
 40
5.0
100
AcDbArc
 50
0.0
 51
42.510447
  0
LINE
  5
1134
100
AcDbEntity
  8
0
  6
CONTINUOUS
 62
     7
100
AcDbLine
 10
767.734817
 20
412.74369
 30
0.0
 11
765.434325
 21
412.742839
 31
0.0
  0
ARC
  5
1135
100
AcDbEntity
  8
0
  6
CONTINUOUS
 62
     7
100
AcDbCircle
 10
765.436175
 20
407.742839
 30
0.0
 40
5.0
100
AcDbArc
 50
90.021195
 51
137.510748
  0
LINE
  5
1136
100
AcDbEntity
  8
0
  6
CONTINUOUS
 62
     7
100
AcDbLine
 10
755.015289
 20
414.296162
 30
0.0
 11
756.36379
 21
412.948658
 31
0.0
  0
ARC
  5
1137
100
AcDbEntity
  8
0
  6
CONTINUOUS
 62
     7
100
AcDbCircle
 10
757.070635
 20
413.656026
 30
0.0
 40
1.0
100
AcDbArc
 50
225.021195
 51
315.021195
  0
LINE
  5
1138
100
AcDbEntity
  8
0
  6
CONTINUOUS
 62
     7
100
AcDbLine
 10
759.050736
 20
408.174182
 30
0.0
 11
761.749155
 21
411.120099
 31
0.0
  0
LINE
  5
1139
100
AcDbEntity
  8
0
  6
CONTINUOUS
 62
     7
100
AcDbLine
 10
762.739994
 20
398.746467
 30
0.0
 11
762.737776
 21
404.741841
 31
0.0
  0
ARC
  5
113A
100
AcDbEntity
  8
0
  6
CONTINUOUS
 62
     7
100
AcDbCircle
 10
758.738331
 20
403.240361
 30
0.0
 40
1.0
100
AcDbArc
 50
180.021195
 51
0.021195
  0
LINE
  5
113B
100
AcDbEntity
  8
0
  6
CONTINUOUS
 62
     7
100
AcDbLine
 10
757.738331
 20
403.239991
 30
0.0
 11
757.737756
 21
404.795073
 31
0.0
  0
LINE
  5
113C
100
AcDbEntity
  8
0
  6
CONTINUOUS
 62
     7
100
AcDbLine
 10
759.738331
 20
403.240731
 30
0.0
 11
759.737776
 21
404.740731
 31
0.0
  0
LINE
  5
113D
100
AcDbEntity
  8
0
  6
CONTINUOUS
 62
     7
100
AcDbLine
 10
762.737776
 20
404.741841
 30
0.0
 11
759.737776
 21
404.740731
 31
0.0
  0
ARC
  5
113E
100
AcDbEntity
  8
0
  6
CONTINUOUS
 62
     7
100
AcDbCircle
 10
762.737756
 20
404.796922
 30
0.0
 40
5.0
100
AcDbArc
 50
137.510748
 51
180.021195
  0
LINE
  5
113F
100
AcDbEntity
  8
0
  6
CONTINUOUS
 62
     7
100
AcDbLine
 10
752.749246
 20
413.733147
 30
0.0
 11
752.751094
 21
408.738147
 31
0.0
  0
ARC
  5
1140
100
AcDbEntity
  8
0
  6
CONTINUOUS
 62
     7
100
AcDbCircle
 10
751.752944
 20
403.737777
 30
0.0
 40
2.5
100
AcDbArc
 50
270.021195
 51
90.021195
  0
ARC
  5
1141
100
AcDbEntity
  8
0
  6
CONTINUOUS
 62
     7
100
AcDbCircle
 10
747.739997
 20
438.736295
 30
0.0
 40
25.5
100
AcDbArc
 50
281.328924
 51
286.577115
  0
ARC
  5
1142
100
AcDbEntity
  8
0
  6
CONTINUOUS
 62
     7
100
AcDbCircle
 10
781.694166
 20
413.734057
 30
0.0
 40
5.0
100
AcDbArc
 50
227.510748
 51
270.021195
  0
LINE
  5
1143
100
AcDbEntity
  8
0
  6
CONTINUOUS
 62
     7
100
AcDbLine
 10
781.749248
 20
413.734077
 30
0.0
 11
781.750358
 21
410.734077
 31
0.0
  0
LINE
  5
1144
100
AcDbEntity
  8
0
  6
CONTINUOUS
 62
     7
100
AcDbLine
 10
776.422276
 20
408.180608
 30
0.0
 11
773.721678
 21
411.124527
 31
0.0
  0
ARC
  5
1145
100
AcDbEntity
  8
0
  6
CONTINUOUS
 62
     7
100
AcDbCircle
 10
770.037157
 20
407.744541
 30
0.0
 40
5.0
100
AcDbArc
 50
42.531642
 51
90.021195
  0
LINE
  5
1146
100
AcDbEntity
  8
0
  6
CONTINUOUS
 62
     7
100
AcDbLine
 10
778.316907
 20
410.047037
 30
0.0
 11
775.37099
 21
412.745456
 31
0.0
  0
LINE
  5
1147
100
AcDbEntity
  8
0
  6
CONTINUOUS
 62
     7
100
AcDbLine
 10
767.734817
 20
412.74369
 30
0.0
 11
770.035308
 21
412.744541
 31
0.0
  0
LINE
  5
1148
100
AcDbEntity
  8
0
  6
CONTINUOUS
 62
     7
100
AcDbLine
 10
777.73833
 20
403.247389
 30
0.0
 11
777.737755
 21
404.802471
 31
0.0
  0
LINE
  5
1149
100
AcDbEntity
  8
0
  6
CONTINUOUS
 62
     7
100
AcDbLine
 10
775.73833
 20
403.24665
 30
0.0
 11
775.737775
 21
404.74665
 31
0.0
  0
LINE
  5
114A
100
AcDbEntity
  8
0
  6
CONTINUOUS
 62
     7
100
AcDbLine
 10
772.737776
 20
404.74554
 30
0.0
 11
775.737775
 21
404.74665
 31
0.0
  0
LINE
  5
114B
100
AcDbEntity
  8
0
  6
CONTINUOUS
 62
     7
100
AcDbLine
 10
772.739994
 20
398.748317
 30
0.0
 11
772.737776
 21
404.74554
 31
0.0
  0
ARC
  5
114C
100
AcDbEntity
  8
0
  6
CONTINUOUS
 62
     7
100
AcDbCircle
 10
776.73833
 20
403.24702
 30
0.0
 40
1.0
100
AcDbArc
 50
180.021195
 51
0.021195
  0
ARC
  5
114D
100
AcDbEntity
  8
0
  6
CONTINUOUS
 62
     7
100
AcDbCircle
 10
772.737755
 20
404.800621
 30
0.0
 40
5.0
100
AcDbArc
 50
0.021195
 51
42.531642
  0
LINE
  5
114E
100
AcDbEntity
  8
0
  6
CONTINUOUS
 62
     7
100
AcDbLine
 10
742.754793
 20
468.736298
 30
0.0
 11
752.728899
 21
468.738143
 31
0.0
  0
CIRCLE
  5
114F
100
AcDbEntity
  8
0
100
AcDbCircle
 10
747.769092
 20
438.743699
 30
0.0
 40
8.0
  0
LINE
  5
1150
100
AcDbEntity
  8
EJES
100
AcDbLine
 10
729.269092
 20
438.743699
 30
0.0
 11
766.269092
 21
438.743699
 31
0.0
  0
LINE
  5
1151
100
AcDbEntity
  8
EJES
100
AcDbLine
 10
747.769092
 20
457.243699
 30
0.0
 11
747.769092
 21
420.243699
 31
0.0
  0
ARC
  5
1152
100
AcDbEntity
  8
0
  6
CONTINUOUS
 62
     7
100
AcDbCircle
 10
747.754793
 20
438.736298
 30
0.0
 40
25.5
100
AcDbArc
 50
191.307729
 51
196.55592
  0
ARC
  5
1153
100
AcDbEntity
  8
0
  6
CONTINUOUS
 62
     7
100
AcDbCircle
 10
722.671075
 20
429.414938
 30
0.0
 40
1.0
100
AcDbArc
 50
135.0
 51
225.0
  0
LINE
  5
1154
100
AcDbEntity
  8
0
  6
CONTINUOUS
 62
     7
100
AcDbLine
 10
727.754793
 20
420.736298
 30
0.0
 11
727.754793
 21
422.917006
 31
0.0
  0
LINE
  5
1155
100
AcDbEntity
  8
0
  6
CONTINUOUS
 62
     7
100
AcDbLine
 10
727.754793
 20
422.917006
 30
0.0
 11
721.963968
 21
428.707831
 31
0.0
  0
LINE
  5
1156
100
AcDbEntity
  8
0
  6
CONTINUOUS
 62
     7
100
AcDbLine
 10
731.935501
 20
418.736298
 30
0.0
 11
729.754793
 21
418.736298
 31
0.0
  0
LINE
  5
1157
100
AcDbEntity
  8
0
  6
CONTINUOUS
 62
     7
100
AcDbLine
 10
721.754793
 20
418.721501
 30
0.0
 11
721.754793
 21
416.42101
 31
0.0
  0
LINE
  5
1158
100
AcDbEntity
  8
0
  6
CONTINUOUS
 62
     7
100
AcDbLine
 10
721.754793
 20
418.721501
 30
0.0
 11
721.754793
 21
421.021993
 31
0.0
  0
ARC
  5
1159
100
AcDbEntity
  8
0
  6
CONTINUOUS
 62
     7
100
AcDbCircle
 10
727.754793
 20
418.736298
 30
0.0
 40
2.0
100
AcDbArc
 50
90.0
 51
0.0
  0
ARC
  5
115A
100
AcDbEntity
  8
0
  6
CONTINUOUS
 62
     7
100
AcDbCircle
 10
716.754793
 20
421.021993
 30
0.0
 40
5.0
100
AcDbArc
 50
0.0
 51
47.489553
  0
LINE
  5
115B
100
AcDbEntity
  8
0
  6
CONTINUOUS
 62
     7
100
AcDbLine
 10
723.31197
 20
431.470047
 30
0.0
 11
721.963968
 21
430.122045
 31
0.0
  0
LINE
  5
115C
100
AcDbEntity
  8
0
  6
CONTINUOUS
 62
     7
100
AcDbLine
 10
731.935501
 20
458.736298
 30
0.0
 11
737.726327
 21
464.527123
 31
0.0
  0
ARC
  5
115D
100
AcDbEntity
  8
0
  6
CONTINUOUS
 62
     7
100
AcDbCircle
 10
730.040488
 20
469.736298
 30
0.0
 40
5.0
100
AcDbArc
 50
270.0
 51
317.489553
  0
LINE
  5
115E
100
AcDbEntity
  8
0
  6
CONTINUOUS
 62
     7
100
AcDbLine
 10
731.935501
 20
458.736298
 30
0.0
 11
729.754793
 21
458.736298
 31
0.0
  0
LINE
  5
115F
100
AcDbEntity
  8
0
  6
CONTINUOUS
 62
     7
100
AcDbLine
 10
727.739997
 20
464.736298
 30
0.0
 11
725.439505
 21
464.736298
 31
0.0
  0
ARC
  5
1160
100
AcDbEntity
  8
0
  6
CONTINUOUS
 62
     7
100
AcDbCircle
 10
725.439505
 20
469.736298
 30
0.0
 40
5.0
100
AcDbArc
 50
222.510447
 51
270.0
  0
LINE
  5
1161
100
AcDbEntity
  8
0
  6
CONTINUOUS
 62
     7
100
AcDbLine
 10
721.754793
 20
458.751094
 30
0.0
 11
721.754793
 21
456.450603
 31
0.0
  0
LINE
  5
1162
100
AcDbEntity
  8
0
  6
CONTINUOUS
 62
     7
100
AcDbLine
 10
721.754793
 20
458.751094
 30
0.0
 11
721.754793
 21
461.051586
 31
0.0
  0
ARC
  5
1163
100
AcDbEntity
  8
0
  6
CONTINUOUS
 62
     7
100
AcDbCircle
 10
727.754793
 20
458.736298
 30
0.0
 40
2.0
100
AcDbArc
 50
0.0
 51
270.0
  0
LINE
  5
1164
100
AcDbEntity
  8
0
  6
CONTINUOUS
 62
     7
100
AcDbLine
 10
727.739997
 20
464.736298
 30
0.0
 11
730.040488
 21
464.736298
 31
0.0
  0
LINE
  5
1165
100
AcDbEntity
  8
0
  6
CONTINUOUS
 62
     7
100
AcDbLine
 10
723.31197
 20
446.002548
 30
0.0
 11
721.963968
 21
447.350551
 31
0.0
  0
ARC
  5
1166
100
AcDbEntity
  8
0
  6
CONTINUOUS
 62
     7
100
AcDbCircle
 10
747.754793
 20
438.736298
 30
0.0
 40
25.5
100
AcDbArc
 50
163.44408
 51
168.692271
  0
ARC
  5
1167
100
AcDbEntity
  8
0
  6
CONTINUOUS
 62
     7
100
AcDbCircle
 10
722.671075
 20
448.057658
 30
0.0
 40
1.0
100
AcDbArc
 50
135.0
 51
225.0
  0
LINE
  5
1168
100
AcDbEntity
  8
0
  6
CONTINUOUS
 62
     7
100
AcDbLine
 10
727.754793
 20
454.55559
 30
0.0
 11
721.963968
 21
448.764764
 31
0.0
  0
LINE
  5
1169
100
AcDbEntity
  8
0
  6
CONTINUOUS
 62
     7
100
AcDbLine
 10
727.754793
 20
456.736298
 30
0.0
 11
727.754793
 21
454.55559
 31
0.0
  0
ARC
  5
116A
100
AcDbEntity
  8
0
  6
CONTINUOUS
 62
     7
100
AcDbCircle
 10
716.754793
 20
456.450603
 30
0.0
 40
5.0
100
AcDbArc
 50
312.510447
 51
0.0
  0
ARC
  5
116B
100
AcDbEntity
  8
0
  6
CONTINUOUS
 62
     7
100
AcDbCircle
 10
716.754793
 20
461.051586
 30
0.0
 40
5.0
100
AcDbArc
 50
0.0
 51
47.489553
  0
ARC
  5
116C
100
AcDbEntity
  8
0
  6
CONTINUOUS
 62
     7
100
AcDbCircle
 10
738.433434
 20
463.820016
 30
0.0
 40
1.0
100
AcDbArc
 50
45.0
 51
135.0
  0
LINE
  5
116D
100
AcDbEntity
  8
0
  6
CONTINUOUS
 62
     7
100
AcDbLine
 10
740.488543
 20
463.179121
 30
0.0
 11
739.14054
 21
464.527123
 31
0.0
  0
ARC
  5
116E
100
AcDbEntity
  8
0
  6
CONTINUOUS
 62
     7
100
AcDbCircle
 10
747.754793
 20
438.736298
 30
0.0
 40
25.5
100
AcDbArc
 50
101.307729
 51
106.55592
  0
LINE
  5
116F
100
AcDbEntity
  8
0
  6
CONTINUOUS
 62
     7
100
AcDbLine
 10
742.754793
 20
468.736298
 30
0.0
 11
742.754793
 21
463.741297
 31
0.0
  0
LINE
  5
1170
100
AcDbEntity
  8
0
  6
CONTINUOUS
 62
     7
100
AcDbLine
 10
777.738145
 20
443.747392
 30
0.0
 11
777.741844
 21
433.747393
 31
0.0
  0
ARC
  5
1171
100
AcDbEntity
  8
0
  6
CONTINUOUS
 62
     7
100
AcDbCircle
 10
767.747394
 20
418.743695
 30
0.0
 40
2.0
100
AcDbArc
 50
180.021195
 51
90.021195
  0
LINE
  5
1172
100
AcDbEntity
  8
0
  6
CONTINUOUS
 62
     7
100
AcDbLine
 10
763.566686
 20
418.742148
 30
0.0
 11
765.747394
 21
418.742955
 31
0.0
  0
LINE
  5
1173
100
AcDbEntity
  8
0
100
AcDbLine
 10
757.769092
 20
436.243699
 30
0.0
 11
757.769092
 21
441.243699
 31
0.0
  0
LINE
  5
1174
100
AcDbEntity
  8
0
100
AcDbLine
 10
755.368434
 20
436.243699
 30
0.0
 11
757.769092
 21
436.243699
 31
0.0
  0
LINE
  5
1175
100
AcDbEntity
  8
0
100
AcDbLine
 10
755.368434
 20
441.243699
 30
0.0
 11
757.769092
 21
441.243699
 31
0.0
  0
ARC
  5
1176
100
AcDbEntity
  8
0
  6
CONTINUOUS
 62
     7
100
AcDbCircle
 10
747.739997
 20
438.736295
 30
0.0
 40
25.5
100
AcDbArc
 50
343.465275
 51
348.713465
  0
LINE
  5
1177
100
AcDbEntity
  8
0
  6
CONTINUOUS
 62
     7
100
AcDbLine
 10
777.741844
 20
433.747393
 30
0.0
 11
772.746844
 21
433.745545
 31
0.0
  0
ARC
  5
1178
100
AcDbEntity
  8
0
  6
CONTINUOUS
 62
     7
100
AcDbCircle
 10
781.690467
 20
423.734056
 30
0.0
 40
5.0
100
AcDbArc
 50
90.021195
 51
132.531642
  0
LINE
  5
1179
100
AcDbEntity
  8
0
  6
CONTINUOUS
 62
     7
100
AcDbLine
 10
781.745549
 20
423.734077
 30
0.0
 11
781.744439
 21
426.734076
 31
0.0
  0
ARC
  5
117A
100
AcDbEntity
  8
0
  6
CONTINUOUS
 62
     7
100
AcDbCircle
 10
772.827162
 20
429.424215
 30
0.0
 40
1.0
100
AcDbArc
 50
315.021195
 51
45.021195
  0
ARC
  5
117B
100
AcDbEntity
  8
0
  6
CONTINUOUS
 62
     7
100
AcDbCircle
 10
778.746547
 20
421.033458
 30
0.0
 40
5.0
100
AcDbArc
 50
132.531642
 51
180.021195
  0
LINE
  5
117C
100
AcDbEntity
  8
0
  6
CONTINUOUS
 62
     7
100
AcDbLine
 10
778.310481
 20
427.418577
 30
0.0
 11
775.366561
 21
424.717979
 31
0.0
  0
LINE
  5
117D
100
AcDbEntity
  8
0
  6
CONTINUOUS
 62
     7
100
AcDbLine
 10
773.747399
 20
418.731118
 30
0.0
 11
773.74825
 21
416.430626
 31
0.0
  0
LINE
  5
117E
100
AcDbEntity
  8
0
  6
CONTINUOUS
 62
     7
100
AcDbLine
 10
773.747399
 20
418.731118
 30
0.0
 11
773.746548
 21
421.031609
 31
0.0
  0
LINE
  5
117F
100
AcDbEntity
  8
0
  6
CONTINUOUS
 62
     7
100
AcDbLine
 10
767.746654
 20
420.743695
 30
0.0
 11
767.745847
 21
422.924402
 31
0.0
  0
LINE
  5
1180
100
AcDbEntity
  8
0
  6
CONTINUOUS
 62
     7
100
AcDbLine
 10
767.745847
 20
422.924402
 30
0.0
 11
773.53453
 21
428.71737
 31
0.0
  0
LINE
  5
1181
100
AcDbEntity
  8
0
  6
CONTINUOUS
 62
     7
100
AcDbLine
 10
772.185506
 20
431.479087
 30
0.0
 11
773.534007
 21
430.131583
 31
0.0
  0
LINE
  5
1182
100
AcDbEntity
  8
0
  6
CONTINUOUS
 62
     7
100
AcDbLine
 10
767.745174
 20
464.743697
 30
0.0
 11
765.444683
 21
464.742846
 31
0.0
  0
ARC
  5
1183
100
AcDbEntity
  8
0
  6
CONTINUOUS
 62
     7
100
AcDbCircle
 10
767.732597
 20
458.743692
 30
0.0
 40
2.0
100
AcDbArc
 50
270.021195
 51
180.021195
  0
ARC
  5
1184
100
AcDbEntity
  8
0
  6
CONTINUOUS
 62
     7
100
AcDbCircle
 10
765.442833
 20
469.742846
 30
0.0
 40
5.0
100
AcDbArc
 50
222.531642
 51
270.021195
  0
LINE
  5
1185
100
AcDbEntity
  8
0
  6
CONTINUOUS
 62
     7
100
AcDbLine
 10
763.551889
 20
458.742145
 30
0.0
 11
765.732597
 21
458.742952
 31
0.0
  0
LINE
  5
1186
100
AcDbEntity
  8
0
  6
CONTINUOUS
 62
     7
100
AcDbLine
 10
754.997205
 20
463.181804
 30
0.0
 11
756.344709
 21
464.530305
 31
0.0
  0
ARC
  5
1187
100
AcDbEntity
  8
0
  6
CONTINUOUS
 62
     7
100
AcDbCircle
 10
757.052077
 20
463.82346
 30
0.0
 40
1.0
100
AcDbArc
 50
45.021195
 51
135.021195
  0
LINE
  5
1188
100
AcDbEntity
  8
0
  6
CONTINUOUS
 62
     7
100
AcDbLine
 10
763.551889
 20
458.742145
 30
0.0
 11
757.758922
 21
464.530828
 31
0.0
  0
LINE
  5
1189
100
AcDbEntity
  8
0
  6
CONTINUOUS
 62
     7
100
AcDbLine
 10
752.728899
 20
468.738143
 30
0.0
 11
752.730747
 21
463.743142
 31
0.0
  0
ARC
  5
118A
100
AcDbEntity
  8
0
  6
CONTINUOUS
 62
     7
100
AcDbCircle
 10
747.739997
 20
438.736295
 30
0.0
 40
25.5
100
AcDbArc
 50
73.465275
 51
78.713465
  0
LINE
  5
118B
100
AcDbEntity
  8
0
  6
CONTINUOUS
 62
     7
100
AcDbLine
 10
781.730741
 20
463.763667
 30
0.0
 11
781.729631
 21
466.763667
 31
0.0
  0
ARC
  5
118C
100
AcDbEntity
  8
0
  6
CONTINUOUS
 62
     7
100
AcDbCircle
 10
778.73174
 20
461.063049
 30
0.0
 40
5.0
100
AcDbArc
 50
132.531642
 51
180.021195
  0
ARC
  5
118D
100
AcDbEntity
  8
0
  6
CONTINUOUS
 62
     7
100
AcDbCircle
 10
770.043816
 20
469.744548
 30
0.0
 40
5.0
100
AcDbArc
 50
270.021195
 51
317.510748
  0
LINE
  5
118E
100
AcDbEntity
  8
0
  6
CONTINUOUS
 62
     7
100
AcDbLine
 10
773.732591
 20
458.760708
 30
0.0
 11
773.733442
 21
456.460217
 31
0.0
  0
LINE
  5
118F
100
AcDbEntity
  8
0
  6
CONTINUOUS
 62
     7
100
AcDbLine
 10
773.732591
 20
458.760708
 30
0.0
 11
773.73174
 21
461.061199
 31
0.0
  0
LINE
  5
1190
100
AcDbEntity
  8
0
  6
CONTINUOUS
 62
     7
100
AcDbLine
 10
778.295673
 20
467.448167
 30
0.0
 11
775.351754
 21
464.74757
 31
0.0
  0
LINE
  5
1191
100
AcDbEntity
  8
0
  6
CONTINUOUS
 62
     7
100
AcDbLine
 10
767.745174
 20
464.743697
 30
0.0
 11
770.045666
 21
464.744548
 31
0.0
  0
LINE
  5
1192
100
AcDbEntity
  8
0
  6
CONTINUOUS
 62
     7
100
AcDbLine
 10
781.73444
 20
453.763668
 30
0.0
 11
781.73555
 21
450.763668
 31
0.0
  0
ARC
  5
1193
100
AcDbEntity
  8
0
  6
CONTINUOUS
 62
     7
100
AcDbCircle
 10
781.679359
 20
453.763647
 30
0.0
 40
5.0
100
AcDbArc
 50
227.510748
 51
270.021195
  0
ARC
  5
1194
100
AcDbEntity
  8
0
  6
CONTINUOUS
 62
     7
100
AcDbCircle
 10
772.820266
 20
448.066933
 30
0.0
 40
1.0
100
AcDbArc
 50
315.021195
 51
45.021195
  0
ARC
  5
1195
100
AcDbEntity
  8
0
  6
CONTINUOUS
 62
     7
100
AcDbCircle
 10
747.739997
 20
438.736295
 30
0.0
 40
25.5
100
AcDbArc
 50
11.328924
 51
16.577115
  0
LINE
  5
1196
100
AcDbEntity
  8
0
  6
CONTINUOUS
 62
     7
100
AcDbLine
 10
772.18013
 20
446.011587
 30
0.0
 11
773.527634
 21
447.360088
 31
0.0
  0
LINE
  5
1197
100
AcDbEntity
  8
0
  6
CONTINUOUS
 62
     7
100
AcDbLine
 10
777.738145
 20
443.747392
 30
0.0
 11
772.743145
 21
443.745544
 31
0.0
  0
LINE
  5
1198
100
AcDbEntity
  8
0
  6
CONTINUOUS
 62
     7
100
AcDbLine
 10
778.302099
 20
450.076627
 30
0.0
 11
775.356182
 21
452.775046
 31
0.0
  0
LINE
  5
1199
100
AcDbEntity
  8
0
  6
CONTINUOUS
 62
     7
100
AcDbLine
 10
767.734144
 20
454.562984
 30
0.0
 11
773.527111
 21
448.774301
 31
0.0
  0
LINE
  5
119A
100
AcDbEntity
  8
0
  6
CONTINUOUS
 62
     7
100
AcDbLine
 10
767.733337
 20
456.743692
 30
0.0
 11
767.734144
 21
454.562984
 31
0.0
  0
ARC
  5
119B
100
AcDbEntity
  8
0
  6
CONTINUOUS
 62
     7
100
AcDbCircle
 10
778.733442
 20
456.462066
 30
0.0
 40
5.0
100
AcDbArc
 50
180.021195
 51
227.510748
  0
ARC
  5
119C
100
AcDbEntity
  8
0
100
AcDbCircle
 10
785.754142
 20
400.750724
 30
0.0
 40
2.0
100
AcDbArc
 50
270.010597
 51
359.977451
  0
LINE
  5
119D
100
AcDbEntity
  8
0
100
AcDbLine
 10
787.759253
 20
413.7363
 30
0.0
 11
787.754142
 21
400.749937
 31
0.0
  0
ARC
  5
119E
100
AcDbEntity
  8
0
  6
CONTINUOUS
 62
     7
100
AcDbCircle
 10
783.250727
 20
409.734632
 30
0.0
 40
1.0
100
AcDbArc
 50
270.021195
 51
90.021195
  0
LINE
  5
119F
100
AcDbEntity
  8
0
100
AcDbLine
 10
787.775007
 20
453.765902
 30
0.0
 11
787.763189
 21
423.736303
 31
0.0
  0
LINE
  5
11A0
100
AcDbEntity
  8
0
100
AcDbLine
 10
788.769092
 20
460.743699
 30
0.0
 11
810.769092
 21
460.743699
 31
0.0
  0
ARC
  5
11A1
100
AcDbEntity
  8
0
  6
CONTINUOUS
 62
     7
100
AcDbCircle
 10
783.229261
 20
467.764222
 30
0.0
 40
1.0
100
AcDbArc
 50
270.021195
 51
90.021195
  0
LINE
  5
11A2
100
AcDbEntity
  8
0
100
AcDbLine
 10
811.769092
 20
461.743699
 30
0.0
 11
810.769092
 21
460.743699
 31
0.0
  0
ARC
  5
11A3
100
AcDbEntity
  8
0
  6
CONTINUOUS
 62
     7
100
AcDbCircle
 10
718.739997
 20
474.236298
 30
0.0
 40
1.0
100
AcDbArc
 50
0.0
 51
180.0
  0
ARC
  5
11A4
100
AcDbEntity
  8
0
  6
CONTINUOUS
 62
     7
100
AcDbCircle
 10
722.739997
 20
472.681216
 30
0.0
 40
5.0
100
AcDbArc
 50
180.0
 51
222.510447
  0
LINE
  5
11A5
100
AcDbEntity
  8
0
100
AcDbLine
 10
709.783671
 20
478.736674
 30
0.0
 11
722.739997
 21
478.73907
 31
0.0
  0
LINE
  5
11A6
100
AcDbEntity
  8
EJES
100
AcDbLine
 10
696.769092
 20
525.743699
 30
0.0
 11
731.769092
 21
525.743699
 31
0.0
  0
LINE
  5
11A7
100
AcDbEntity
  8
0
100
AcDbLine
 10
626.769092
 20
537.743699
 30
0.0
 11
788.769092
 21
537.743699
 31
0.0
  0
LWPOLYLINE
  5
11A8
100
AcDbEntity
  8
0
100
AcDbPolyline
 90
        6
 70
     1
 43
0.0
 10
639.264502
 20
496.742029
 10
631.759913
 20
483.743699
 10
639.264502
 20
470.745368
 10
654.273681
 20
470.745368
 10
661.778271
 20
483.743699
 10
654.273681
 20
496.742029
  0
CIRCLE
  5
11A9
100
AcDbEntity
  8
0
100
AcDbCircle
 10
646.769092
 20
483.743699
 30
0.0
 40
12.5
  0
LINE
  5
11AA
100
AcDbEntity
  8
0
  6
CONTINUOUS
 62
     7
100
AcDbLine
 10
717.739997
 20
474.236298
 30
0.0
 11
717.739997
 21
472.681216
 31
0.0
  0
CIRCLE
  5
11AB
100
AcDbEntity
  8
0
  6
CONTINUOUS
 62
     7
100
AcDbCircle
 10
712.830989
 20
473.736298
 30
0.0
 40
2.75
  0
ARC
  5
11AC
100
AcDbEntity
  8
0
100
AcDbCircle
 10
709.784041
 20
476.736674
 30
0.0
 40
2.0
100
AcDbArc
 50
90.010597
 51
179.977451
  0
LINE
  5
11AD
100
AcDbEntity
  8
0
100
AcDbLine
 10
772.739994
 20
478.748318
 30
0.0
 11
785.783683
 21
478.750731
 31
0.0
  0
CIRCLE
  5
11AE
100
AcDbEntity
  8
0
  6
CONTINUOUS
 62
     7
100
AcDbCircle
 10
782.830617
 20
473.736298
 30
0.0
 40
2.75
  0
LINE
  5
11AF
100
AcDbEntity
  8
EJES
100
AcDbLine
 10
798.769092
 20
525.743699
 30
0.0
 11
763.769092
 21
525.743699
 31
0.0
  0
LINE
  5
11B0
100
AcDbEntity
  8
0
100
AcDbLine
 10
732.739997
 20
478.74092
 30
0.0
 11
762.739994
 21
478.746468
 31
0.0
  0
LINE
  5
11B1
100
AcDbEntity
  8
0
  6
CONTINUOUS
 62
     7
100
AcDbLine
 10
743.754793
 20
471.236298
 30
0.0
 11
751.727974
 21
471.237772
 31
0.0
  0
LINE
  5
11B2
100
AcDbEntity
  8
0
  6
CONTINUOUS
 62
     7
100
AcDbLine
 10
743.754793
 20
476.236298
 30
0.0
 11
751.812901
 21
476.236298
 31
0.0
  0
ARC
  5
11B3
100
AcDbEntity
  8
0
  6
CONTINUOUS
 62
     7
100
AcDbCircle
 10
751.727049
 20
473.737772
 30
0.0
 40
2.5
100
AcDbArc
 50
270.021195
 51
90.021195
  0
LINE
  5
11B4
100
AcDbEntity
  8
0
  6
CONTINUOUS
 62
     7
100
AcDbLine
 10
732.739997
 20
472.736298
 30
0.0
 11
735.739997
 21
472.736298
 31
0.0
  0
LINE
  5
11B5
100
AcDbEntity
  8
0
  6
CONTINUOUS
 62
     7
100
AcDbLine
 10
732.739997
 20
478.74092
 30
0.0
 11
732.739997
 21
472.736298
 31
0.0
  0
LINE
  5
11B6
100
AcDbEntity
  8
0
  6
CONTINUOUS
 62
     7
100
AcDbLine
 10
722.739997
 20
478.73907
 30
0.0
 11
722.739997
 21
472.736298
 31
0.0
  0
LINE
  5
11B7
100
AcDbEntity
  8
0
  6
CONTINUOUS
 62
     7
100
AcDbLine
 10
719.739997
 20
474.236298
 30
0.0
 11
719.739997
 21
472.736298
 31
0.0
  0
LINE
  5
11B8
100
AcDbEntity
  8
0
  6
CONTINUOUS
 62
     7
100
AcDbLine
 10
722.739997
 20
472.736298
 30
0.0
 11
719.739997
 21
472.736298
 31
0.0
  0
LINE
  5
11B9
100
AcDbEntity
  8
0
  6
CONTINUOUS
 62
     7
100
AcDbLine
 10
737.739997
 20
474.236298
 30
0.0
 11
737.739997
 21
472.681216
 31
0.0
  0
ARC
  5
11BA
100
AcDbEntity
  8
0
  6
CONTINUOUS
 62
     7
100
AcDbCircle
 10
743.754793
 20
473.736298
 30
0.0
 40
2.5
100
AcDbArc
 50
90.0
 51
270.0
  0
LINE
  5
11BB
100
AcDbEntity
  8
0
  6
CONTINUOUS
 62
     7
100
AcDbLine
 10
735.739997
 20
474.236298
 30
0.0
 11
735.739997
 21
472.736298
 31
0.0
  0
ARC
  5
11BC
100
AcDbEntity
  8
0
  6
CONTINUOUS
 62
     7
100
AcDbCircle
 10
732.739997
 20
472.681216
 30
0.0
 40
5.0
100
AcDbArc
 50
317.489553
 51
0.0
  0
ARC
  5
11BD
100
AcDbEntity
  8
0
  6
CONTINUOUS
 62
     7
100
AcDbCircle
 10
736.739997
 20
474.236298
 30
0.0
 40
1.0
100
AcDbArc
 50
0.0
 51
180.0
  0
LINE
  5
11BE
100
AcDbEntity
  8
0
  6
CONTINUOUS
 62
     7
100
AcDbLine
 10
762.739994
 20
478.746468
 30
0.0
 11
762.742215
 21
472.741847
 31
0.0
  0
ARC
  5
11BF
100
AcDbEntity
  8
0
  6
CONTINUOUS
 62
     7
100
AcDbCircle
 10
758.741661
 20
474.240367
 30
0.0
 40
1.0
100
AcDbArc
 50
0.021195
 51
180.021195
  0
ARC
  5
11C0
100
AcDbEntity
  8
0
  6
CONTINUOUS
 62
     7
100
AcDbCircle
 10
762.742236
 20
472.686765
 30
0.0
 40
5.0
100
AcDbArc
 50
180.021195
 51
222.531642
  0
LINE
  5
11C1
100
AcDbEntity
  8
0
  6
CONTINUOUS
 62
     7
100
AcDbLine
 10
759.741661
 20
474.240737
 30
0.0
 11
759.742215
 21
472.740737
 31
0.0
  0
LINE
  5
11C2
100
AcDbEntity
  8
0
  6
CONTINUOUS
 62
     7
100
AcDbLine
 10
757.741661
 20
474.239997
 30
0.0
 11
757.742236
 21
472.684916
 31
0.0
  0
LINE
  5
11C3
100
AcDbEntity
  8
0
  6
CONTINUOUS
 62
     7
100
AcDbLine
 10
762.742215
 20
472.741847
 30
0.0
 11
759.742215
 21
472.740737
 31
0.0
  0
LINE
  5
11C4
100
AcDbEntity
  8
0
  6
CONTINUOUS
 62
     7
100
AcDbLine
 10
777.741659
 20
474.247396
 30
0.0
 11
777.742235
 21
472.692314
 31
0.0
  0
LINE
  5
11C5
100
AcDbEntity
  8
0
  6
CONTINUOUS
 62
     7
100
AcDbLine
 10
772.742215
 20
472.745546
 30
0.0
 11
775.742214
 21
472.746656
 31
0.0
  0
LINE
  5
11C6
100
AcDbEntity
  8
0
  6
CONTINUOUS
 62
     7
100
AcDbLine
 10
772.739994
 20
478.748318
 30
0.0
 11
772.742215
 21
472.745546
 31
0.0
  0
LINE
  5
11C7
100
AcDbEntity
  8
0
  6
CONTINUOUS
 62
     7
100
AcDbLine
 10
775.74166
 20
474.246656
 30
0.0
 11
775.742214
 21
472.746656
 31
0.0
  0
ARC
  5
11C8
100
AcDbEntity
  8
0
  6
CONTINUOUS
 62
     7
100
AcDbCircle
 10
772.742235
 20
472.690465
 30
0.0
 40
5.0
100
AcDbArc
 50
317.510748
 51
0.021195
  0
ARC
  5
11C9
100
AcDbEntity
  8
0
  6
CONTINUOUS
 62
     7
100
AcDbCircle
 10
776.741659
 20
474.247026
 30
0.0
 40
1.0
100
AcDbArc
 50
0.021195
 51
180.021195
  0
ARC
  5
11CA
100
AcDbEntity
  8
0
100
AcDbCircle
 10
785.784053
 20
476.750731
 30
0.0
 40
2.0
100
AcDbArc
 50
359.977451
 51
90.010597
  0
LINE
  5
11CB
100
AcDbEntity
  8
0
100
AcDbLine
 10
788.769092
 20
506.743699
 30
0.0
 11
810.769092
 21
506.743699
 31
0.0
  0
LINE
  5
11CC
100
AcDbEntity
  8
0
100
AcDbLine
 10
810.769092
 20
506.743699
 30
0.0
 11
811.769092
 21
505.743699
 31
0.0
  0
LINE
  5
11CD
100
AcDbEntity
  8
0
100
AcDbLine
 10
879.269092
 20
483.743699
 30
0.0
 11
879.269092
 21
439.743699
 31
0.0
  0
LINE
  5
11CE
100
AcDbEntity
  8
0
100
AcDbLine
 10
866.269092
 20
505.743699
 30
0.0
 11
866.269092
 21
461.743699
 31
0.0
  0
LINE
  5
11CF
100
AcDbEntity
  8
0
100
AcDbLine
 10
889.269092
 20
527.743699
 30
0.0
 11
889.269092
 21
439.743699
 31
0.0
  0
LINE
  5
11D0
100
AcDbEntity
  8
0
100
AcDbLine
 10
879.269092
 20
439.743699
 30
0.0
 11
880.269092
 21
438.743699
 31
0.0
  0
LINE
  5
11D1
100
AcDbEntity
  8
0
100
AcDbLine
 10
866.269092
 20
461.743699
 30
0.0
 11
867.269092
 21
460.743699
 31
0.0
  0
LINE
  5
11D2
100
AcDbEntity
  8
0
100
AcDbLine
 10
867.269092
 20
460.743699
 30
0.0
 11
879.269092
 21
460.743699
 31
0.0
  0
LINE
  5
11D3
100
AcDbEntity
  8
0
100
AcDbLine
 10
888.269092
 20
438.743699
 30
0.0
 11
889.269092
 21
439.743699
 31
0.0
  0
LINE
  5
11D4
100
AcDbEntity
  8
0
100
AcDbLine
 10
880.269092
 20
438.743699
 30
0.0
 11
888.269092
 21
438.743699
 31
0.0
  0
LINE
  5
11D5
100
AcDbEntity
  8
0
100
AcDbLine
 10
879.269092
 20
483.743699
 30
0.0
 11
879.269092
 21
527.743699
 31
0.0
  0
LINE
  5
11D6
100
AcDbEntity
  8
TRAZOS
100
AcDbLine
 10
879.269092
 20
511.743699
 30
0.0
 11
889.269092
 21
511.743699
 31
0.0
  0
LINE
  5
11D7
100
AcDbEntity
  8
EJES
100
AcDbLine
 10
869.269092
 20
517.243699
 30
0.0
 11
899.269092
 21
517.243699
 31
0.0
  0
LINE
  5
11D8
100
AcDbEntity
  8
0
100
AcDbLine
 10
866.269092
 20
505.743699
 30
0.0
 11
867.269092
 21
506.743699
 31
0.0
  0
LINE
  5
11D9
100
AcDbEntity
  8
0
100
AcDbLine
 10
867.269092
 20
506.743699
 30
0.0
 11
879.269092
 21
506.743699
 31
0.0
  0
LINE
  5
11DA
100
AcDbEntity
  8
TRAZOS
100
AcDbLine
 10
879.269092
 20
522.743699
 30
0.0
 11
889.269092
 21
522.743699
 31
0.0
  0
LINE
  5
11DB
100
AcDbEntity
  8
0
100
AcDbLine
 10
879.269092
 20
527.743699
 30
0.0
 11
880.269092
 21
528.743699
 31
0.0
  0
LINE
  5
11DC
100
AcDbEntity
  8
0
100
AcDbLine
 10
880.269092
 20
528.743699
 30
0.0
 11
888.269092
 21
528.743699
 31
0.0
  0
LINE
  5
11DD
100
AcDbEntity
  8
0
100
AcDbLine
 10
888.269092
 20
528.743699
 30
0.0
 11
889.269092
 21
527.743699
 31
0.0
  0
LINE
  5
11DE
100
AcDbEntity
  8
EJES
100
AcDbLine
 10
660.789052
 20
795.301626
 30
0.0
 11
660.749696
 21
695.301617
 31
0.0
  0
LINE
  5
11DF
100
AcDbEntity
  8
0
100
AcDbLine
 10
645.769872
 20
705.298846
 30
0.0
 11
675.740276
 21
705.30439
 31
0.0
  0
LINE
  5
11E0
100
AcDbEntity
  8
0
100
AcDbLine
 10
645.740279
 20
785.298842
 30
0.0
 11
675.740276
 21
785.304391
 31
0.0
  0
LINE
  5
11E1
100
AcDbEntity
  8
EJES
100
AcDbLine
 10
619.005076
 20
745.293897
 30
0.0
 11
702.490276
 21
745.309338
 31
0.0
  0
LINE
  5
11E2
100
AcDbEntity
  8
0
  6
CONTINUOUS
 62
     7
100
AcDbLine
 10
653.488825
 20
769.737043
 30
0.0
 11
652.140823
 21
771.085046
 31
0.0
  0
LINE
  5
11E3
100
AcDbEntity
  8
0
  6
CONTINUOUS
 62
     7
100
AcDbLine
 10
653.488825
 20
720.851397
 30
0.0
 11
652.140823
 21
719.503395
 31
0.0
  0
LINE
  5
11E4
100
AcDbEntity
  8
0
100
AcDbLine
 10
620.775277
 20
760.309017
 30
0.0
 11
620.763459
 21
730.279424
 31
0.0
  0
ARC
  5
11E5
100
AcDbEntity
  8
0
  6
CONTINUOUS
 62
     7
100
AcDbCircle
 10
635.671357
 20
735.97286
 30
0.0
 40
1.0
100
AcDbArc
 50
135.0
 51
225.0
  0
ARC
  5
11E6
100
AcDbEntity
  8
0
  6
CONTINUOUS
 62
     7
100
AcDbCircle
 10
626.810157
 20
730.279424
 30
0.0
 40
5.0
100
AcDbArc
 50
47.489553
 51
90.0
  0
ARC
  5
11E7
100
AcDbEntity
  8
0
100
AcDbCircle
 10
622.754413
 20
707.294589
 30
0.0
 40
2.0
100
AcDbArc
 50
179.977451
 51
270.010597
  0
LINE
  5
11E8
100
AcDbEntity
  8
0
  6
CONTINUOUS
 62
     7
100
AcDbLine
 10
620.763459
 20
730.279424
 30
0.0
 11
626.755076
 21
730.279424
 31
0.0
  0
LINE
  5
11E9
100
AcDbEntity
  8
0
  6
CONTINUOUS
 62
     7
100
AcDbLine
 10
620.759523
 20
720.279424
 30
0.0
 11
626.755076
 21
720.279424
 31
0.0
  0
LINE
  5
11EA
100
AcDbEntity
  8
0
100
AcDbLine
 10
620.759523
 20
720.279424
 30
0.0
 11
620.754413
 21
707.295377
 31
0.0
  0
CIRCLE
  5
11EB
100
AcDbEntity
  8
0
  6
CONTINUOUS
 62
     7
100
AcDbCircle
 10
625.831272
 20
710.29422
 30
0.0
 40
2.75
  0
LINE
  5
11EC
100
AcDbEntity
  8
0
  6
CONTINUOUS
 62
     7
100
AcDbLine
 10
645.769872
 20
705.298846
 30
0.0
 11
645.769872
 21
711.29422
 31
0.0
  0
LINE
  5
11ED
100
AcDbEntity
  8
0
  6
CONTINUOUS
 62
     7
100
AcDbLine
 10
635.769872
 20
705.296997
 30
0.0
 11
635.769872
 21
711.29422
 31
0.0
  0
LINE
  5
11EE
100
AcDbEntity
  8
0
100
AcDbLine
 10
622.754783
 20
705.294589
 30
0.0
 11
635.769872
 21
705.296997
 31
0.0
  0
ARC
  5
11EF
100
AcDbEntity
  8
0
  6
CONTINUOUS
 62
     7
100
AcDbCircle
 10
638.469381
 20
714.29422
 30
0.0
 40
5.0
100
AcDbArc
 50
90.0
 51
137.489553
  0
LINE
  5
11F0
100
AcDbEntity
  8
0
  6
CONTINUOUS
 62
     7
100
AcDbLine
 10
640.755076
 20
729.474928
 30
0.0
 11
634.96425
 21
735.265754
 31
0.0
  0
LINE
  5
11F1
100
AcDbEntity
  8
0
  6
CONTINUOUS
 62
     7
100
AcDbLine
 10
625.255076
 20
735.279424
 30
0.0
 11
626.810157
 21
735.279424
 31
0.0
  0
LINE
  5
11F2
100
AcDbEntity
  8
0
  6
CONTINUOUS
 62
     7
100
AcDbLine
 10
634.755076
 20
725.279424
 30
0.0
 11
634.755076
 21
727.579915
 31
0.0
  0
LINE
  5
11F3
100
AcDbEntity
  8
0
  6
CONTINUOUS
 62
     7
100
AcDbLine
 10
634.755076
 20
725.279424
 30
0.0
 11
634.755076
 21
722.978932
 31
0.0
  0
ARC
  5
11F4
100
AcDbEntity
  8
0
  6
CONTINUOUS
 62
     7
100
AcDbCircle
 10
629.755076
 20
727.579915
 30
0.0
 40
5.0
100
AcDbArc
 50
0.0
 51
47.489553
  0
ARC
  5
11F5
100
AcDbEntity
  8
0
  6
CONTINUOUS
 62
     7
100
AcDbCircle
 10
629.755076
 20
722.978932
 30
0.0
 40
5.0
100
AcDbArc
 50
312.510447
 51
0.0
  0
LINE
  5
11F6
100
AcDbEntity
  8
0
  6
CONTINUOUS
 62
     7
100
AcDbLine
 10
625.255076
 20
733.279424
 30
0.0
 11
626.755076
 21
733.279424
 31
0.0
  0
LINE
  5
11F7
100
AcDbEntity
  8
0
  6
CONTINUOUS
 62
     7
100
AcDbLine
 10
626.755076
 20
730.279424
 30
0.0
 11
626.755076
 21
733.279424
 31
0.0
  0
LINE
  5
11F8
100
AcDbEntity
  8
0
  6
CONTINUOUS
 62
     7
100
AcDbLine
 10
625.255076
 20
717.279424
 30
0.0
 11
626.755076
 21
717.279424
 31
0.0
  0
LINE
  5
11F9
100
AcDbEntity
  8
0
  6
CONTINUOUS
 62
     7
100
AcDbLine
 10
626.755076
 20
720.279424
 30
0.0
 11
626.755076
 21
717.279424
 31
0.0
  0
ARC
  5
11FA
100
AcDbEntity
  8
0
  6
CONTINUOUS
 62
     7
100
AcDbCircle
 10
635.769872
 20
711.349302
 30
0.0
 40
5.0
100
AcDbArc
 50
137.489553
 51
180.0
  0
LINE
  5
11FB
100
AcDbEntity
  8
0
  6
CONTINUOUS
 62
     7
100
AcDbLine
 10
625.255076
 20
715.279424
 30
0.0
 11
626.810157
 21
715.279424
 31
0.0
  0
ARC
  5
11FC
100
AcDbEntity
  8
0
  6
CONTINUOUS
 62
     7
100
AcDbCircle
 10
626.810157
 20
720.279424
 30
0.0
 40
5.0
100
AcDbArc
 50
270.0
 51
312.510447
  0
ARC
  5
11FD
100
AcDbEntity
  8
0
  6
CONTINUOUS
 62
     7
100
AcDbCircle
 10
625.255076
 20
716.279424
 30
0.0
 40
1.0
100
AcDbArc
 50
90.0
 51
270.0
  0
LINE
  5
11FE
100
AcDbEntity
  8
0
  6
CONTINUOUS
 62
     7
100
AcDbLine
 10
635.769872
 20
711.29422
 30
0.0
 11
632.769872
 21
711.29422
 31
0.0
  0
LINE
  5
11FF
100
AcDbEntity
  8
0
  6
CONTINUOUS
 62
     7
100
AcDbLine
 10
632.084102
 20
714.727925
 30
0.0
 11
634.78361
 21
717.672843
 31
0.0
  0
LINE
  5
1200
100
AcDbEntity
  8
0
  6
CONTINUOUS
 62
     7
100
AcDbLine
 10
630.18878
 20
716.593653
 30
0.0
 11
633.133699
 21
719.293161
 31
0.0
  0
ARC
  5
1201
100
AcDbEntity
  8
0
  6
CONTINUOUS
 62
     7
100
AcDbCircle
 10
631.769872
 20
709.79422
 30
0.0
 40
1.0
100
AcDbArc
 50
180.0
 51
0.0
  0
LINE
  5
1202
100
AcDbEntity
  8
0
  6
CONTINUOUS
 62
     7
100
AcDbLine
 10
630.769872
 20
709.79422
 30
0.0
 11
630.769872
 21
711.349302
 31
0.0
  0
LINE
  5
1203
100
AcDbEntity
  8
0
  6
CONTINUOUS
 62
     7
100
AcDbLine
 10
632.769872
 20
709.79422
 30
0.0
 11
632.769872
 21
711.29422
 31
0.0
  0
ARC
  5
1204
100
AcDbEntity
  8
0
  6
CONTINUOUS
 62
     7
100
AcDbCircle
 10
625.255076
 20
734.279424
 30
0.0
 40
1.0
100
AcDbArc
 50
90.0
 51
270.0
  0
LINE
  5
1205
100
AcDbEntity
  8
0
  6
CONTINUOUS
 62
     7
100
AcDbLine
 10
630.18878
 20
733.965194
 30
0.0
 11
633.133699
 21
731.265686
 31
0.0
  0
ARC
  5
1206
100
AcDbEntity
  8
0
  6
CONTINUOUS
 62
     7
100
AcDbCircle
 10
651.433716
 20
720.210502
 30
0.0
 40
1.0
100
AcDbArc
 50
225.0
 51
315.0
  0
ARC
  5
1207
100
AcDbEntity
  8
0
  6
CONTINUOUS
 62
     7
100
AcDbCircle
 10
645.769872
 20
711.349302
 30
0.0
 40
5.0
100
AcDbArc
 50
0.0
 51
42.510447
  0
LINE
  5
1208
100
AcDbEntity
  8
0
  6
CONTINUOUS
 62
     7
100
AcDbLine
 10
650.769872
 20
709.79422
 30
0.0
 11
650.769872
 21
711.349302
 31
0.0
  0
LINE
  5
1209
100
AcDbEntity
  8
0
  6
CONTINUOUS
 62
     7
100
AcDbLine
 10
644.935784
 20
725.29422
 30
0.0
 11
642.755076
 21
725.29422
 31
0.0
  0
LINE
  5
120A
100
AcDbEntity
  8
0
  6
CONTINUOUS
 62
     7
100
AcDbLine
 10
640.755076
 20
727.29422
 30
0.0
 11
640.755076
 21
729.474928
 31
0.0
  0
ARC
  5
120B
100
AcDbEntity
  8
0
  6
CONTINUOUS
 62
     7
100
AcDbCircle
 10
640.755076
 20
725.29422
 30
0.0
 40
2.0
100
AcDbArc
 50
90.0
 51
0.0
  0
ARC
  5
120C
100
AcDbEntity
  8
0
  6
CONTINUOUS
 62
     7
100
AcDbCircle
 10
643.070364
 20
714.29422
 30
0.0
 40
5.0
100
AcDbArc
 50
42.510447
 51
90.0
  0
LINE
  5
120D
100
AcDbEntity
  8
0
  6
CONTINUOUS
 62
     7
100
AcDbLine
 10
645.769872
 20
711.29422
 30
0.0
 11
648.769872
 21
711.29422
 31
0.0
  0
LINE
  5
120E
100
AcDbEntity
  8
0
  6
CONTINUOUS
 62
     7
100
AcDbLine
 10
640.769872
 20
719.29422
 30
0.0
 11
638.469381
 21
719.29422
 31
0.0
  0
LINE
  5
120F
100
AcDbEntity
  8
0
  6
CONTINUOUS
 62
     7
100
AcDbLine
 10
640.769872
 20
719.29422
 30
0.0
 11
643.070364
 21
719.29422
 31
0.0
  0
LINE
  5
1210
100
AcDbEntity
  8
0
  6
CONTINUOUS
 62
     7
100
AcDbLine
 10
648.769872
 20
709.79422
 30
0.0
 11
648.769872
 21
711.29422
 31
0.0
  0
LINE
  5
1211
100
AcDbEntity
  8
0
  6
CONTINUOUS
 62
     7
100
AcDbLine
 10
644.935784
 20
725.29422
 30
0.0
 11
650.726609
 21
719.503395
 31
0.0
  0
ARC
  5
1212
100
AcDbEntity
  8
0
  6
CONTINUOUS
 62
     7
100
AcDbCircle
 10
649.769872
 20
709.79422
 30
0.0
 40
1.0
100
AcDbArc
 50
180.0
 51
0.0
  0
LINE
  5
1213
100
AcDbEntity
  8
0
  6
CONTINUOUS
 62
     7
100
AcDbLine
 10
649.455643
 20
714.727925
 30
0.0
 11
646.756134
 21
717.672843
 31
0.0
  0
ARC
  5
1214
100
AcDbEntity
  8
0
100
AcDbCircle
 10
622.784323
 20
783.294596
 30
0.0
 40
2.0
100
AcDbArc
 50
90.010597
 51
179.977451
  0
LINE
  5
1215
100
AcDbEntity
  8
0
  6
CONTINUOUS
 62
     7
100
AcDbLine
 10
620.775277
 20
760.309017
 30
0.0
 11
626.755076
 21
760.309017
 31
0.0
  0
LINE
  5
1216
100
AcDbEntity
  8
0
  6
CONTINUOUS
 62
     7
100
AcDbLine
 10
640.755076
 20
763.29422
 30
0.0
 11
640.755076
 21
761.113512
 31
0.0
  0
ARC
  5
1217
100
AcDbEntity
  8
0
  6
CONTINUOUS
 62
     7
100
AcDbCircle
 10
629.755076
 20
763.008525
 30
0.0
 40
5.0
100
AcDbArc
 50
312.510447
 51
0.0
  0
LINE
  5
1218
100
AcDbEntity
  8
0
  6
CONTINUOUS
 62
     7
100
AcDbLine
 10
640.755076
 20
761.113512
 30
0.0
 11
634.96425
 21
755.322687
 31
0.0
  0
LINE
  5
1219
100
AcDbEntity
  8
0
  6
CONTINUOUS
 62
     7
100
AcDbLine
 10
625.255076
 20
757.309017
 30
0.0
 11
626.755076
 21
757.309017
 31
0.0
  0
LINE
  5
121A
100
AcDbEntity
  8
0
  6
CONTINUOUS
 62
     7
100
AcDbLine
 10
626.755076
 20
760.309017
 30
0.0
 11
626.755076
 21
757.309017
 31
0.0
  0
ARC
  5
121B
100
AcDbEntity
  8
0
  6
CONTINUOUS
 62
     7
100
AcDbCircle
 10
635.671357
 20
754.61558
 30
0.0
 40
1.0
100
AcDbArc
 50
135.0
 51
225.0
  0
LINE
  5
121C
100
AcDbEntity
  8
0
  6
CONTINUOUS
 62
     7
100
AcDbLine
 10
636.312252
 20
752.560471
 30
0.0
 11
634.96425
 21
753.908473
 31
0.0
  0
ARC
  5
121D
100
AcDbEntity
  8
0
  6
CONTINUOUS
 62
     7
100
AcDbCircle
 10
660.755076
 20
745.29422
 30
0.0
 40
25.5
100
AcDbArc
 50
163.44408
 51
168.692271
  0
LINE
  5
121E
100
AcDbEntity
  8
0
  6
CONTINUOUS
 62
     7
100
AcDbLine
 10
636.312252
 20
738.02797
 30
0.0
 11
634.96425
 21
736.679967
 31
0.0
  0
ARC
  5
121F
100
AcDbEntity
  8
0
  6
CONTINUOUS
 62
     7
100
AcDbCircle
 10
660.755076
 20
745.29422
 30
0.0
 40
25.5
100
AcDbArc
 50
191.307729
 51
196.55592
  0
LINE
  5
1220
100
AcDbEntity
  8
0
  6
CONTINUOUS
 62
     7
100
AcDbLine
 10
625.255076
 20
755.309017
 30
0.0
 11
626.810157
 21
755.309017
 31
0.0
  0
ARC
  5
1221
100
AcDbEntity
  8
0
  6
CONTINUOUS
 62
     7
100
AcDbCircle
 10
626.810157
 20
760.309017
 30
0.0
 40
5.0
100
AcDbArc
 50
270.0
 51
312.510447
  0
LINE
  5
1222
100
AcDbEntity
  8
0
  6
CONTINUOUS
 62
     7
100
AcDbLine
 10
630.755076
 20
750.29422
 30
0.0
 11
630.755076
 21
740.29422
 31
0.0
  0
LINE
  5
1223
100
AcDbEntity
  8
0
  6
CONTINUOUS
 62
     7
100
AcDbLine
 10
630.755076
 20
740.29422
 30
0.0
 11
635.750076
 21
740.29422
 31
0.0
  0
LINE
  5
1224
100
AcDbEntity
  8
0
  6
CONTINUOUS
 62
     7
100
AcDbLine
 10
630.755076
 20
750.29422
 30
0.0
 11
635.750076
 21
750.29422
 31
0.0
  0
ARC
  5
1225
100
AcDbEntity
  8
0
  6
CONTINUOUS
 62
     7
100
AcDbCircle
 10
625.255076
 20
756.309017
 30
0.0
 40
1.0
100
AcDbArc
 50
90.0
 51
270.0
  0
LINE
  5
1226
100
AcDbEntity
  8
0
  6
CONTINUOUS
 62
     7
100
AcDbLine
 10
630.18878
 20
756.623246
 30
0.0
 11
633.133699
 21
759.322755
 31
0.0
  0
ARC
  5
1227
100
AcDbEntity
  8
0
  6
CONTINUOUS
 62
     7
100
AcDbCircle
 10
638.439787
 20
776.29422
 30
0.0
 40
5.0
100
AcDbArc
 50
222.510447
 51
270.0
  0
LINE
  5
1228
100
AcDbEntity
  8
0
100
AcDbLine
 10
622.783953
 20
785.294596
 30
0.0
 11
635.740279
 21
785.296993
 31
0.0
  0
LINE
  5
1229
100
AcDbEntity
  8
0
100
AcDbLine
 10
620.784324
 20
783.295383
 30
0.0
 11
620.779213
 21
770.309017
 31
0.0
  0
CIRCLE
  5
122A
100
AcDbEntity
  8
0
  6
CONTINUOUS
 62
     7
100
AcDbCircle
 10
625.831272
 20
780.29422
 30
0.0
 40
2.75
  0
ARC
  5
122B
100
AcDbEntity
  8
0
  6
CONTINUOUS
 62
     7
100
AcDbCircle
 10
631.740279
 20
780.79422
 30
0.0
 40
1.0
100
AcDbArc
 50
0.0
 51
180.0
  0
LINE
  5
122C
100
AcDbEntity
  8
0
  6
CONTINUOUS
 62
     7
100
AcDbLine
 10
634.755076
 20
765.309017
 30
0.0
 11
634.755076
 21
763.008525
 31
0.0
  0
LINE
  5
122D
100
AcDbEntity
  8
0
  6
CONTINUOUS
 62
     7
100
AcDbLine
 10
634.755076
 20
765.309017
 30
0.0
 11
634.755076
 21
767.609508
 31
0.0
  0
ARC
  5
122E
100
AcDbEntity
  8
0
  6
CONTINUOUS
 62
     7
100
AcDbCircle
 10
629.755076
 20
767.609508
 30
0.0
 40
5.0
100
AcDbArc
 50
0.0
 51
47.489553
  0
ARC
  5
122F
100
AcDbEntity
  8
0
  6
CONTINUOUS
 62
     7
100
AcDbCircle
 10
635.740279
 20
779.239139
 30
0.0
 40
5.0
100
AcDbArc
 50
180.0
 51
222.510447
  0
LINE
  5
1230
100
AcDbEntity
  8
0
  6
CONTINUOUS
 62
     7
100
AcDbLine
 10
625.255076
 20
775.309017
 30
0.0
 11
626.810157
 21
775.309017
 31
0.0
  0
LINE
  5
1231
100
AcDbEntity
  8
0
  6
CONTINUOUS
 62
     7
100
AcDbLine
 10
625.255076
 20
773.309017
 30
0.0
 11
626.755076
 21
773.309017
 31
0.0
  0
LINE
  5
1232
100
AcDbEntity
  8
0
  6
CONTINUOUS
 62
     7
100
AcDbLine
 10
626.755076
 20
770.309017
 30
0.0
 11
626.755076
 21
773.309017
 31
0.0
  0
ARC
  5
1233
100
AcDbEntity
  8
0
  6
CONTINUOUS
 62
     7
100
AcDbCircle
 10
626.810157
 20
770.309017
 30
0.0
 40
5.0
100
AcDbArc
 50
47.489553
 51
90.0
  0
ARC
  5
1234
100
AcDbEntity
  8
0
  6
CONTINUOUS
 62
     7
100
AcDbCircle
 10
625.255076
 20
774.309017
 30
0.0
 40
1.0
100
AcDbArc
 50
90.0
 51
270.0
  0
LINE
  5
1235
100
AcDbEntity
  8
0
  6
CONTINUOUS
 62
     7
100
AcDbLine
 10
620.779213
 20
770.309017
 30
0.0
 11
626.755076
 21
770.309017
 31
0.0
  0
LINE
  5
1236
100
AcDbEntity
  8
0
  6
CONTINUOUS
 62
     7
100
AcDbLine
 10
630.18878
 20
773.994788
 30
0.0
 11
633.133699
 21
771.295279
 31
0.0
  0
LINE
  5
1237
100
AcDbEntity
  8
0
  6
CONTINUOUS
 62
     7
100
AcDbLine
 10
632.054508
 20
775.860516
 30
0.0
 11
634.754017
 21
772.915597
 31
0.0
  0
LINE
  5
1238
100
AcDbEntity
  8
0
  6
CONTINUOUS
 62
     7
100
AcDbLine
 10
635.740279
 20
779.29422
 30
0.0
 11
632.740279
 21
779.29422
 31
0.0
  0
LINE
  5
1239
100
AcDbEntity
  8
0
  6
CONTINUOUS
 62
     7
100
AcDbLine
 10
635.740279
 20
785.296993
 30
0.0
 11
635.740279
 21
779.29422
 31
0.0
  0
LINE
  5
123A
100
AcDbEntity
  8
0
  6
CONTINUOUS
 62
     7
100
AcDbLine
 10
632.740279
 20
780.79422
 30
0.0
 11
632.740279
 21
779.29422
 31
0.0
  0
LINE
  5
123B
100
AcDbEntity
  8
0
  6
CONTINUOUS
 62
     7
100
AcDbLine
 10
630.740279
 20
780.79422
 30
0.0
 11
630.740279
 21
779.239139
 31
0.0
  0
ARC
  5
123C
100
AcDbEntity
  8
0
  6
CONTINUOUS
 62
     7
100
AcDbCircle
 10
649.740279
 20
780.79422
 30
0.0
 40
1.0
100
AcDbArc
 50
0.0
 51
180.0
  0
ARC
  5
123D
100
AcDbEntity
  8
0
  6
CONTINUOUS
 62
     7
100
AcDbCircle
 10
645.740279
 20
779.239139
 30
0.0
 40
5.0
100
AcDbArc
 50
317.489553
 51
0.0
  0
ARC
  5
123E
100
AcDbEntity
  8
0
  6
CONTINUOUS
 62
     7
100
AcDbCircle
 10
651.433716
 20
770.377939
 30
0.0
 40
1.0
100
AcDbArc
 50
45.0
 51
135.0
  0
LINE
  5
123F
100
AcDbEntity
  8
0
  6
CONTINUOUS
 62
     7
100
AcDbLine
 10
645.740279
 20
779.29422
 30
0.0
 11
648.740279
 21
779.29422
 31
0.0
  0
ARC
  5
1240
100
AcDbEntity
  8
0
  6
CONTINUOUS
 62
     7
100
AcDbCircle
 10
643.04077
 20
776.29422
 30
0.0
 40
5.0
100
AcDbArc
 50
270.0
 51
317.489553
  0
LINE
  5
1241
100
AcDbEntity
  8
0
  6
CONTINUOUS
 62
     7
100
AcDbLine
 10
640.740279
 20
771.29422
 30
0.0
 11
638.439787
 21
771.29422
 31
0.0
  0
LINE
  5
1242
100
AcDbEntity
  8
0
  6
CONTINUOUS
 62
     7
100
AcDbLine
 10
640.740279
 20
771.29422
 30
0.0
 11
643.04077
 21
771.29422
 31
0.0
  0
LINE
  5
1243
100
AcDbEntity
  8
0
  6
CONTINUOUS
 62
     7
100
AcDbLine
 10
644.935784
 20
765.29422
 30
0.0
 11
642.755076
 21
765.29422
 31
0.0
  0
ARC
  5
1244
100
AcDbEntity
  8
0
  6
CONTINUOUS
 62
     7
100
AcDbCircle
 10
640.755076
 20
765.29422
 30
0.0
 40
2.0
100
AcDbArc
 50
0.0
 51
270.0
  0
LINE
  5
1245
100
AcDbEntity
  8
0
  6
CONTINUOUS
 62
     7
100
AcDbLine
 10
644.935784
 20
765.29422
 30
0.0
 11
650.726609
 21
771.085046
 31
0.0
  0
LINE
  5
1246
100
AcDbEntity
  8
0
  6
CONTINUOUS
 62
     7
100
AcDbLine
 10
649.42605
 20
775.860516
 30
0.0
 11
646.726541
 21
772.915597
 31
0.0
  0
LINE
  5
1247
100
AcDbEntity
  8
0
  6
CONTINUOUS
 62
     7
100
AcDbLine
 10
645.740279
 20
785.298842
 30
0.0
 11
645.740279
 21
779.29422
 31
0.0
  0
LINE
  5
1248
100
AcDbEntity
  8
0
  6
CONTINUOUS
 62
     7
100
AcDbLine
 10
648.740279
 20
780.79422
 30
0.0
 11
648.740279
 21
779.29422
 31
0.0
  0
LINE
  5
1249
100
AcDbEntity
  8
0
  6
CONTINUOUS
 62
     7
100
AcDbLine
 10
650.740279
 20
780.79422
 30
0.0
 11
650.740279
 21
779.239139
 31
0.0
  0
LINE
  5
124A
100
AcDbEntity
  8
0
100
AcDbLine
 10
700.775289
 20
760.323825
 30
0.0
 11
700.763471
 21
730.294225
 31
0.0
  0
ARC
  5
124B
100
AcDbEntity
  8
0
  6
CONTINUOUS
 62
     7
100
AcDbCircle
 10
685.827444
 20
735.982137
 30
0.0
 40
1.0
100
AcDbArc
 50
315.021195
 51
45.021195
  0
ARC
  5
124C
100
AcDbEntity
  8
0
  6
CONTINUOUS
 62
     7
100
AcDbCircle
 10
694.690749
 20
730.291979
 30
0.0
 40
5.0
100
AcDbArc
 50
90.021195
 51
132.531642
  0
ARC
  5
124D
100
AcDbEntity
  8
0
  6
CONTINUOUS
 62
     7
100
AcDbCircle
 10
683.03744
 20
714.302463
 30
0.0
 40
5.0
100
AcDbArc
 50
42.531642
 51
90.021195
  0
LINE
  5
124E
100
AcDbEntity
  8
0
  6
CONTINUOUS
 62
     7
100
AcDbLine
 10
680.746129
 20
729.482325
 30
0.0
 11
686.534812
 21
735.275292
 31
0.0
  0
ARC
  5
124F
100
AcDbEntity
  8
0
  6
CONTINUOUS
 62
     7
100
AcDbCircle
 10
664.753226
 20
710.2957
 30
0.0
 40
2.5
100
AcDbArc
 50
270.021195
 51
90.021195
  0
LINE
  5
1250
100
AcDbEntity
  8
0
  6
CONTINUOUS
 62
     7
100
AcDbLine
 10
675.740276
 20
705.30439
 30
0.0
 11
675.738058
 21
711.299763
 31
0.0
  0
ARC
  5
1251
100
AcDbEntity
  8
0
  6
CONTINUOUS
 62
     7
100
AcDbCircle
 10
656.755076
 20
710.29422
 30
0.0
 40
2.5
100
AcDbArc
 50
90.0
 51
270.0
  0
LINE
  5
1252
100
AcDbEntity
  8
0
  6
CONTINUOUS
 62
     7
100
AcDbLine
 10
656.755076
 20
707.79422
 30
0.0
 11
664.754151
 21
707.7957
 31
0.0
  0
LINE
  5
1253
100
AcDbEntity
  8
0
  6
CONTINUOUS
 62
     7
100
AcDbLine
 10
668.015571
 20
720.854084
 30
0.0
 11
669.364072
 21
719.50658
 31
0.0
  0
LINE
  5
1254
100
AcDbEntity
  8
0
  6
CONTINUOUS
 62
     7
100
AcDbLine
 10
656.755076
 20
712.79422
 30
0.0
 11
664.752301
 21
712.795699
 31
0.0
  0
LINE
  5
1255
100
AcDbEntity
  8
0
  6
CONTINUOUS
 62
     7
100
AcDbLine
 10
655.755076
 20
715.29422
 30
0.0
 11
665.751376
 21
715.296069
 31
0.0
  0
ARC
  5
1256
100
AcDbEntity
  8
0
  6
CONTINUOUS
 62
     7
100
AcDbCircle
 10
660.740279
 20
745.294218
 30
0.0
 40
25.5
100
AcDbArc
 50
281.328924
 51
286.577115
  0
LINE
  5
1257
100
AcDbEntity
  8
0
  6
CONTINUOUS
 62
     7
100
AcDbLine
 10
665.749528
 20
720.291069
 30
0.0
 11
665.751376
 21
715.296069
 31
0.0
  0
ARC
  5
1258
100
AcDbEntity
  8
0
  6
CONTINUOUS
 62
     7
100
AcDbCircle
 10
660.755076
 20
745.29422
 30
0.0
 40
25.5
100
AcDbArc
 50
253.44408
 51
258.692271
  0
LINE
  5
1259
100
AcDbEntity
  8
0
  6
CONTINUOUS
 62
     7
100
AcDbLine
 10
655.755076
 20
720.289221
 30
0.0
 11
655.755076
 21
715.29422
 31
0.0
  0
ARC
  5
125A
100
AcDbEntity
  8
0
  6
CONTINUOUS
 62
     7
100
AcDbCircle
 10
670.070917
 20
720.213949
 30
0.0
 40
1.0
100
AcDbArc
 50
225.021195
 51
315.021195
  0
ARC
  5
125B
100
AcDbEntity
  8
0
  6
CONTINUOUS
 62
     7
100
AcDbCircle
 10
675.738038
 20
711.354845
 30
0.0
 40
5.0
100
AcDbArc
 50
137.510748
 51
180.021195
  0
LINE
  5
125C
100
AcDbEntity
  8
0
  6
CONTINUOUS
 62
     7
100
AcDbLine
 10
670.738614
 20
709.797914
 30
0.0
 11
670.738038
 21
711.352995
 31
0.0
  0
LINE
  5
125D
100
AcDbEntity
  8
0
  6
CONTINUOUS
 62
     7
100
AcDbLine
 10
676.566968
 20
725.300071
 30
0.0
 11
678.747676
 21
725.300877
 31
0.0
  0
LINE
  5
125E
100
AcDbEntity
  8
0
  6
CONTINUOUS
 62
     7
100
AcDbLine
 10
680.746936
 20
727.301617
 30
0.0
 11
680.746129
 21
729.482325
 31
0.0
  0
ARC
  5
125F
100
AcDbEntity
  8
0
  6
CONTINUOUS
 62
     7
100
AcDbCircle
 10
680.747676
 20
725.301617
 30
0.0
 40
2.0
100
AcDbArc
 50
180.021195
 51
90.021195
  0
ARC
  5
1260
100
AcDbEntity
  8
0
  6
CONTINUOUS
 62
     7
100
AcDbCircle
 10
678.436457
 20
714.300762
 30
0.0
 40
5.0
100
AcDbArc
 50
90.021195
 51
137.510748
  0
LINE
  5
1261
100
AcDbEntity
  8
0
  6
CONTINUOUS
 62
     7
100
AcDbLine
 10
675.738058
 20
711.299763
 30
0.0
 11
672.738059
 21
711.298653
 31
0.0
  0
LINE
  5
1262
100
AcDbEntity
  8
0
  6
CONTINUOUS
 62
     7
100
AcDbLine
 10
680.735099
 20
719.301612
 30
0.0
 11
683.03559
 21
719.302463
 31
0.0
  0
LINE
  5
1263
100
AcDbEntity
  8
0
  6
CONTINUOUS
 62
     7
100
AcDbLine
 10
680.735099
 20
719.301612
 30
0.0
 11
678.434607
 21
719.300761
 31
0.0
  0
LINE
  5
1264
100
AcDbEntity
  8
0
  6
CONTINUOUS
 62
     7
100
AcDbLine
 10
672.738613
 20
709.798653
 30
0.0
 11
672.738059
 21
711.298653
 31
0.0
  0
LINE
  5
1265
100
AcDbEntity
  8
0
  6
CONTINUOUS
 62
     7
100
AcDbLine
 10
676.566968
 20
725.300071
 30
0.0
 11
670.778285
 21
719.507104
 31
0.0
  0
ARC
  5
1266
100
AcDbEntity
  8
0
  6
CONTINUOUS
 62
     7
100
AcDbCircle
 10
671.738614
 20
709.798284
 30
0.0
 40
1.0
100
AcDbArc
 50
180.021195
 51
0.021195
  0
LINE
  5
1267
100
AcDbEntity
  8
0
  6
CONTINUOUS
 62
     7
100
AcDbLine
 10
672.051018
 20
714.732104
 30
0.0
 11
674.749437
 21
717.678021
 31
0.0
  0
LINE
  5
1268
100
AcDbEntity
  8
0
100
AcDbLine
 10
700.759535
 20
720.294223
 30
0.0
 11
700.754424
 21
707.307859
 31
0.0
  0
CIRCLE
  5
1269
100
AcDbEntity
  8
0
  6
CONTINUOUS
 62
     7
100
AcDbCircle
 10
695.830899
 20
710.29422
 30
0.0
 40
2.75
  0
LINE
  5
126A
100
AcDbEntity
  8
0
  6
CONTINUOUS
 62
     7
100
AcDbLine
 10
685.740276
 20
705.306239
 30
0.0
 11
685.738058
 21
711.303462
 31
0.0
  0
LINE
  5
126B
100
AcDbEntity
  8
0
100
AcDbLine
 10
685.740276
 20
705.306239
 30
0.0
 11
698.754795
 21
705.308646
 31
0.0
  0
ARC
  5
126C
100
AcDbEntity
  8
0
100
AcDbCircle
 10
698.754425
 20
707.308646
 30
0.0
 40
2.0
100
AcDbArc
 50
270.010597
 51
359.977451
  0
LINE
  5
126D
100
AcDbEntity
  8
0
  6
CONTINUOUS
 62
     7
100
AcDbLine
 10
696.243981
 20
735.292554
 30
0.0
 11
694.6889
 21
735.291978
 31
0.0
  0
LINE
  5
126E
100
AcDbEntity
  8
0
  6
CONTINUOUS
 62
     7
100
AcDbLine
 10
686.747681
 20
725.28904
 30
0.0
 11
686.74683
 21
727.589531
 31
0.0
  0
LINE
  5
126F
100
AcDbEntity
  8
0
  6
CONTINUOUS
 62
     7
100
AcDbLine
 10
686.747681
 20
725.28904
 30
0.0
 11
686.748532
 21
722.988549
 31
0.0
  0
ARC
  5
1270
100
AcDbEntity
  8
0
  6
CONTINUOUS
 62
     7
100
AcDbCircle
 10
691.74683
 20
727.591381
 30
0.0
 40
5.0
100
AcDbArc
 50
132.531642
 51
180.021195
  0
ARC
  5
1271
100
AcDbEntity
  8
0
  6
CONTINUOUS
 62
     7
100
AcDbCircle
 10
691.748532
 20
722.990398
 30
0.0
 40
5.0
100
AcDbArc
 50
180.021195
 51
227.510748
  0
LINE
  5
1272
100
AcDbEntity
  8
0
  6
CONTINUOUS
 62
     7
100
AcDbLine
 10
696.244721
 20
733.292554
 30
0.0
 11
694.744721
 21
733.291999
 31
0.0
  0
LINE
  5
1273
100
AcDbEntity
  8
0
  6
CONTINUOUS
 62
     7
100
AcDbLine
 10
694.745831
 20
730.291999
 30
0.0
 11
694.744721
 21
733.291999
 31
0.0
  0
LINE
  5
1274
100
AcDbEntity
  8
0
  6
CONTINUOUS
 62
     7
100
AcDbLine
 10
700.763471
 20
730.294225
 30
0.0
 11
694.745831
 21
730.291999
 31
0.0
  0
LINE
  5
1275
100
AcDbEntity
  8
0
  6
CONTINUOUS
 62
     7
100
AcDbLine
 10
696.25064
 20
717.292555
 30
0.0
 11
694.75064
 21
717.292
 31
0.0
  0
LINE
  5
1276
100
AcDbEntity
  8
0
  6
CONTINUOUS
 62
     7
100
AcDbLine
 10
694.74953
 20
720.292
 30
0.0
 11
694.75064
 21
717.292
 31
0.0
  0
ARC
  5
1277
100
AcDbEntity
  8
0
  6
CONTINUOUS
 62
     7
100
AcDbCircle
 10
685.738037
 20
711.358544
 30
0.0
 40
5.0
100
AcDbArc
 50
0.021195
 51
42.531642
  0
LINE
  5
1278
100
AcDbEntity
  8
0
  6
CONTINUOUS
 62
     7
100
AcDbLine
 10
696.251379
 20
715.292555
 30
0.0
 11
694.696298
 21
715.29198
 31
0.0
  0
ARC
  5
1279
100
AcDbEntity
  8
0
  6
CONTINUOUS
 62
     7
100
AcDbCircle
 10
694.694448
 20
720.291979
 30
0.0
 40
5.0
100
AcDbArc
 50
227.510748
 51
270.021195
  0
ARC
  5
127A
100
AcDbEntity
  8
0
  6
CONTINUOUS
 62
     7
100
AcDbCircle
 10
696.25101
 20
716.292555
 30
0.0
 40
1.0
100
AcDbArc
 50
270.021195
 51
90.021195
  0
LINE
  5
127B
100
AcDbEntity
  8
0
  6
CONTINUOUS
 62
     7
100
AcDbLine
 10
700.759535
 20
720.294223
 30
0.0
 11
694.74953
 21
720.292
 31
0.0
  0
LINE
  5
127C
100
AcDbEntity
  8
0
  6
CONTINUOUS
 62
     7
100
AcDbLine
 10
685.738058
 20
711.303462
 30
0.0
 11
688.738057
 21
711.304572
 31
0.0
  0
LINE
  5
127D
100
AcDbEntity
  8
0
  6
CONTINUOUS
 62
     7
100
AcDbLine
 10
689.422558
 20
714.73853
 30
0.0
 11
686.72196
 21
717.68245
 31
0.0
  0
LINE
  5
127E
100
AcDbEntity
  8
0
  6
CONTINUOUS
 62
     7
100
AcDbLine
 10
691.317189
 20
716.604959
 30
0.0
 11
688.371272
 21
719.303378
 31
0.0
  0
ARC
  5
127F
100
AcDbEntity
  8
0
  6
CONTINUOUS
 62
     7
100
AcDbCircle
 10
689.738612
 20
709.804942
 30
0.0
 40
1.0
100
AcDbArc
 50
180.021195
 51
0.021195
  0
LINE
  5
1280
100
AcDbEntity
  8
0
  6
CONTINUOUS
 62
     7
100
AcDbLine
 10
690.738612
 20
709.805312
 30
0.0
 11
690.738037
 21
711.360393
 31
0.0
  0
LINE
  5
1281
100
AcDbEntity
  8
0
  6
CONTINUOUS
 62
     7
100
AcDbLine
 10
688.738612
 20
709.804572
 30
0.0
 11
688.738057
 21
711.304572
 31
0.0
  0
ARC
  5
1282
100
AcDbEntity
  8
0
  6
CONTINUOUS
 62
     7
100
AcDbCircle
 10
696.244351
 20
734.292554
 30
0.0
 40
1.0
100
AcDbArc
 50
270.021195
 51
90.021195
  0
LINE
  5
1283
100
AcDbEntity
  8
0
  6
CONTINUOUS
 62
     7
100
AcDbLine
 10
691.310763
 20
733.976499
 30
0.0
 11
688.366843
 21
731.275902
 31
0.0
  0
ARC
  5
1284
100
AcDbEntity
  8
0
  6
CONTINUOUS
 62
     7
100
AcDbCircle
 10
683.044098
 20
776.30247
 30
0.0
 40
5.0
100
AcDbArc
 50
270.021195
 51
317.510748
  0
LINE
  5
1285
100
AcDbEntity
  8
0
  6
CONTINUOUS
 62
     7
100
AcDbLine
 10
685.180412
 20
752.56951
 30
0.0
 11
686.527916
 21
753.91801
 31
0.0
  0
ARC
  5
1286
100
AcDbEntity
  8
0
  6
CONTINUOUS
 62
     7
100
AcDbCircle
 10
660.740279
 20
745.294218
 30
0.0
 40
25.5
100
AcDbArc
 50
11.328924
 51
16.577115
  0
LINE
  5
1287
100
AcDbEntity
  8
0
  6
CONTINUOUS
 62
     7
100
AcDbLine
 10
685.185788
 20
738.037009
 30
0.0
 11
686.534289
 21
736.689506
 31
0.0
  0
ARC
  5
1288
100
AcDbEntity
  8
0
  6
CONTINUOUS
 62
     7
100
AcDbCircle
 10
660.740279
 20
745.294218
 30
0.0
 40
25.5
100
AcDbArc
 50
343.465275
 51
348.713465
  0
LINE
  5
1289
100
AcDbEntity
  8
0
  6
CONTINUOUS
 62
     7
100
AcDbLine
 10
680.734426
 20
761.120907
 30
0.0
 11
686.527393
 21
755.332224
 31
0.0
  0
LINE
  5
128A
100
AcDbEntity
  8
0
  6
CONTINUOUS
 62
     7
100
AcDbLine
 10
680.733619
 20
763.301615
 30
0.0
 11
680.734426
 21
761.120907
 31
0.0
  0
ARC
  5
128B
100
AcDbEntity
  8
0
  6
CONTINUOUS
 62
     7
100
AcDbCircle
 10
670.052359
 20
770.381383
 30
0.0
 40
1.0
100
AcDbArc
 50
45.021195
 51
135.021195
  0
LINE
  5
128C
100
AcDbEntity
  8
0
  6
CONTINUOUS
 62
     7
100
AcDbLine
 10
655.755076
 20
775.29422
 30
0.0
 11
665.729181
 21
775.296065
 31
0.0
  0
LINE
  5
128D
100
AcDbEntity
  8
0
  6
CONTINUOUS
 62
     7
100
AcDbLine
 10
656.755076
 20
777.79422
 30
0.0
 11
664.728256
 21
777.795695
 31
0.0
  0
ARC
  5
128E
100
AcDbEntity
  8
0
  6
CONTINUOUS
 62
     7
100
AcDbCircle
 10
660.740279
 20
745.294218
 30
0.0
 40
25.5
100
AcDbArc
 50
73.465275
 51
78.713465
  0
LINE
  5
128F
100
AcDbEntity
  8
0
  6
CONTINUOUS
 62
     7
100
AcDbLine
 10
667.997487
 20
769.739727
 30
0.0
 11
669.344991
 21
771.088228
 31
0.0
  0
LINE
  5
1290
100
AcDbEntity
  8
0
  6
CONTINUOUS
 62
     7
100
AcDbLine
 10
665.729181
 20
775.296065
 30
0.0
 11
665.731029
 21
770.301065
 31
0.0
  0
ARC
  5
1291
100
AcDbEntity
  8
0
  6
CONTINUOUS
 62
     7
100
AcDbCircle
 10
664.727332
 20
780.295695
 30
0.0
 40
2.5
100
AcDbArc
 50
270.021195
 51
90.021195
  0
LINE
  5
1292
100
AcDbEntity
  8
0
  6
CONTINUOUS
 62
     7
100
AcDbLine
 10
656.755076
 20
782.79422
 30
0.0
 11
664.813183
 21
782.79422
 31
0.0
  0
ARC
  5
1293
100
AcDbEntity
  8
0
  6
CONTINUOUS
 62
     7
100
AcDbCircle
 10
660.755076
 20
745.29422
 30
0.0
 40
25.5
100
AcDbArc
 50
101.307729
 51
106.55592
  0
LINE
  5
1294
100
AcDbEntity
  8
0
  6
CONTINUOUS
 62
     7
100
AcDbLine
 10
655.755076
 20
775.29422
 30
0.0
 11
655.755076
 21
770.29922
 31
0.0
  0
ARC
  5
1295
100
AcDbEntity
  8
0
  6
CONTINUOUS
 62
     7
100
AcDbCircle
 10
656.755076
 20
780.29422
 30
0.0
 40
2.5
100
AcDbArc
 50
90.0
 51
270.0
  0
ARC
  5
1296
100
AcDbEntity
  8
0
  6
CONTINUOUS
 62
     7
100
AcDbCircle
 10
671.741943
 20
780.79829
 30
0.0
 40
1.0
100
AcDbArc
 50
0.021195
 51
180.021195
  0
ARC
  5
1297
100
AcDbEntity
  8
0
  6
CONTINUOUS
 62
     7
100
AcDbCircle
 10
675.742518
 20
779.244688
 30
0.0
 40
5.0
100
AcDbArc
 50
180.021195
 51
222.531642
  0
LINE
  5
1298
100
AcDbEntity
  8
0
  6
CONTINUOUS
 62
     7
100
AcDbLine
 10
675.742497
 20
779.299769
 30
0.0
 11
672.742498
 21
779.29866
 31
0.0
  0
ARC
  5
1299
100
AcDbEntity
  8
0
  6
CONTINUOUS
 62
     7
100
AcDbCircle
 10
678.443116
 20
776.300768
 30
0.0
 40
5.0
100
AcDbArc
 50
222.531642
 51
270.021195
  0
LINE
  5
129A
100
AcDbEntity
  8
0
  6
CONTINUOUS
 62
     7
100
AcDbLine
 10
680.745456
 20
771.30162
 30
0.0
 11
683.045948
 21
771.302471
 31
0.0
  0
LINE
  5
129B
100
AcDbEntity
  8
0
  6
CONTINUOUS
 62
     7
100
AcDbLine
 10
680.745456
 20
771.30162
 30
0.0
 11
678.444965
 21
771.300769
 31
0.0
  0
LINE
  5
129C
100
AcDbEntity
  8
0
  6
CONTINUOUS
 62
     7
100
AcDbLine
 10
676.552172
 20
765.300068
 30
0.0
 11
678.732879
 21
765.300875
 31
0.0
  0
ARC
  5
129D
100
AcDbEntity
  8
0
  6
CONTINUOUS
 62
     7
100
AcDbCircle
 10
680.732879
 20
765.301614
 30
0.0
 40
2.0
100
AcDbArc
 50
270.021195
 51
180.021195
  0
LINE
  5
129E
100
AcDbEntity
  8
0
  6
CONTINUOUS
 62
     7
100
AcDbLine
 10
676.552172
 20
765.300068
 30
0.0
 11
670.759204
 21
771.088751
 31
0.0
  0
LINE
  5
129F
100
AcDbEntity
  8
0
  6
CONTINUOUS
 62
     7
100
AcDbLine
 10
672.057997
 20
775.864702
 30
0.0
 11
674.758595
 21
772.920782
 31
0.0
  0
LINE
  5
12A0
100
AcDbEntity
  8
0
  6
CONTINUOUS
 62
     7
100
AcDbLine
 10
675.740276
 20
785.304391
 30
0.0
 11
675.742497
 21
779.299769
 31
0.0
  0
LINE
  5
12A1
100
AcDbEntity
  8
0
  6
CONTINUOUS
 62
     7
100
AcDbLine
 10
672.741943
 20
780.79866
 30
0.0
 11
672.742498
 21
779.29866
 31
0.0
  0
LINE
  5
12A2
100
AcDbEntity
  8
0
  6
CONTINUOUS
 62
     7
100
AcDbLine
 10
670.741943
 20
780.79792
 30
0.0
 11
670.742518
 21
779.242838
 31
0.0
  0
ARC
  5
12A3
100
AcDbEntity
  8
0
  6
CONTINUOUS
 62
     7
100
AcDbCircle
 10
691.733724
 20
763.019989
 30
0.0
 40
5.0
100
AcDbArc
 50
180.021195
 51
227.510748
  0
LINE
  5
12A4
100
AcDbEntity
  8
0
  6
CONTINUOUS
 62
     7
100
AcDbLine
 10
696.580899
 20
757.322145
 30
0.0
 11
695.080899
 21
757.321591
 31
0.0
  0
LINE
  5
12A5
100
AcDbEntity
  8
0
  6
CONTINUOUS
 62
     7
100
AcDbLine
 10
694.734722
 20
760.32159
 30
0.0
 11
694.735832
 21
757.321591
 31
0.0
  0
LINE
  5
12A6
100
AcDbEntity
  8
0
  6
CONTINUOUS
 62
     7
100
AcDbLine
 10
700.775289
 20
760.323825
 30
0.0
 11
694.734722
 21
760.32159
 31
0.0
  0
ARC
  5
12A7
100
AcDbEntity
  8
0
  6
CONTINUOUS
 62
     7
100
AcDbCircle
 10
685.820548
 20
754.624856
 30
0.0
 40
1.0
100
AcDbArc
 50
315.021195
 51
45.021195
  0
LINE
  5
12A8
100
AcDbEntity
  8
0
  6
CONTINUOUS
 62
     7
100
AcDbLine
 10
696.236572
 20
755.322146
 30
0.0
 11
694.68149
 21
755.32157
 31
0.0
  0
ARC
  5
12A9
100
AcDbEntity
  8
0
  6
CONTINUOUS
 62
     7
100
AcDbCircle
 10
694.679641
 20
760.32157
 30
0.0
 40
5.0
100
AcDbArc
 50
227.510748
 51
270.021195
  0
LINE
  5
12AA
100
AcDbEntity
  8
0
  6
CONTINUOUS
 62
     7
100
AcDbLine
 10
690.738427
 20
750.305315
 30
0.0
 11
690.742126
 21
740.305315
 31
0.0
  0
LINE
  5
12AB
100
AcDbEntity
  8
0
  6
CONTINUOUS
 62
     7
100
AcDbLine
 10
690.742126
 20
740.305315
 30
0.0
 11
685.747126
 21
740.303468
 31
0.0
  0
LINE
  5
12AC
100
AcDbEntity
  8
0
  6
CONTINUOUS
 62
     7
100
AcDbLine
 10
690.738427
 20
750.305315
 30
0.0
 11
685.743427
 21
750.303467
 31
0.0
  0
ARC
  5
12AD
100
AcDbEntity
  8
0
  6
CONTINUOUS
 62
     7
100
AcDbCircle
 10
696.236202
 20
756.322145
 30
0.0
 40
1.0
100
AcDbArc
 50
270.021195
 51
90.021195
  0
LINE
  5
12AE
100
AcDbEntity
  8
0
  6
CONTINUOUS
 62
     7
100
AcDbLine
 10
691.302381
 20
756.63455
 30
0.0
 11
688.356464
 21
759.332969
 31
0.0
  0
ARC
  5
12AF
100
AcDbEntity
  8
0
100
AcDbCircle
 10
698.784335
 20
783.308653
 30
0.0
 40
2.0
100
AcDbArc
 50
359.977451
 51
90.010597
  0
LINE
  5
12B0
100
AcDbEntity
  8
0
100
AcDbLine
 10
685.740276
 20
785.30624
 30
0.0
 11
698.783965
 21
785.308653
 31
0.0
  0
LINE
  5
12B1
100
AcDbEntity
  8
0
100
AcDbLine
 10
700.784335
 20
783.307866
 30
0.0
 11
700.779225
 21
770.323827
 31
0.0
  0
CIRCLE
  5
12B2
100
AcDbEntity
  8
0
  6
CONTINUOUS
 62
     7
100
AcDbCircle
 10
695.830899
 20
780.29422
 30
0.0
 40
2.75
  0
ARC
  5
12B3
100
AcDbEntity
  8
0
  6
CONTINUOUS
 62
     7
100
AcDbCircle
 10
689.741942
 20
780.804948
 30
0.0
 40
1.0
100
AcDbArc
 50
0.021195
 51
180.021195
  0
LINE
  5
12B4
100
AcDbEntity
  8
0
  6
CONTINUOUS
 62
     7
100
AcDbLine
 10
686.732873
 20
765.318631
 30
0.0
 11
686.733724
 21
763.018139
 31
0.0
  0
LINE
  5
12B5
100
AcDbEntity
  8
0
  6
CONTINUOUS
 62
     7
100
AcDbLine
 10
686.732873
 20
765.318631
 30
0.0
 11
686.732022
 21
767.619122
 31
0.0
  0
ARC
  5
12B6
100
AcDbEntity
  8
0
  6
CONTINUOUS
 62
     7
100
AcDbCircle
 10
691.732022
 20
767.620971
 30
0.0
 40
5.0
100
AcDbArc
 50
132.531642
 51
180.021195
  0
ARC
  5
12B7
100
AcDbEntity
  8
0
  6
CONTINUOUS
 62
     7
100
AcDbCircle
 10
685.742517
 20
779.248387
 30
0.0
 40
5.0
100
AcDbArc
 50
317.510748
 51
0.021195
  0
LINE
  5
12B8
100
AcDbEntity
  8
0
  6
CONTINUOUS
 62
     7
100
AcDbLine
 10
696.229174
 20
775.322144
 30
0.0
 11
694.674092
 21
775.321569
 31
0.0
  0
LINE
  5
12B9
100
AcDbEntity
  8
0
  6
CONTINUOUS
 62
     7
100
AcDbLine
 10
696.229913
 20
773.322144
 30
0.0
 11
694.729913
 21
773.321589
 31
0.0
  0
LINE
  5
12BA
100
AcDbEntity
  8
0
  6
CONTINUOUS
 62
     7
100
AcDbLine
 10
694.731023
 20
770.32159
 30
0.0
 11
694.729913
 21
773.321589
 31
0.0
  0
ARC
  5
12BB
100
AcDbEntity
  8
0
  6
CONTINUOUS
 62
     7
100
AcDbCircle
 10
694.675942
 20
770.321569
 30
0.0
 40
5.0
100
AcDbArc
 50
90.021195
 51
132.531642
  0
ARC
  5
12BC
100
AcDbEntity
  8
0
  6
CONTINUOUS
 62
     7
100
AcDbCircle
 10
696.229543
 20
774.322144
 30
0.0
 40
1.0
100
AcDbArc
 50
270.021195
 51
90.021195
  0
LINE
  5
12BD
100
AcDbEntity
  8
0
  6
CONTINUOUS
 62
     7
100
AcDbLine
 10
700.779225
 20
770.323827
 30
0.0
 11
694.731023
 21
770.32159
 31
0.0
  0
LINE
  5
12BE
100
AcDbEntity
  8
0
  6
CONTINUOUS
 62
     7
100
AcDbLine
 10
691.295955
 20
774.00609
 30
0.0
 11
688.352036
 21
771.305492
 31
0.0
  0
LINE
  5
12BF
100
AcDbEntity
  8
0
  6
CONTINUOUS
 62
     7
100
AcDbLine
 10
689.429537
 20
775.871128
 30
0.0
 11
686.731118
 21
772.925211
 31
0.0
  0
LINE
  5
12C0
100
AcDbEntity
  8
0
  6
CONTINUOUS
 62
     7
100
AcDbLine
 10
685.742497
 20
779.303469
 30
0.0
 11
688.742496
 21
779.304578
 31
0.0
  0
LINE
  5
12C1
100
AcDbEntity
  8
0
  6
CONTINUOUS
 62
     7
100
AcDbLine
 10
685.740276
 20
785.30624
 30
0.0
 11
685.742497
 21
779.303469
 31
0.0
  0
LINE
  5
12C2
100
AcDbEntity
  8
0
  6
CONTINUOUS
 62
     7
100
AcDbLine
 10
688.741942
 20
780.804578
 30
0.0
 11
688.742496
 21
779.304578
 31
0.0
  0
LINE
  5
12C3
100
AcDbEntity
  8
0
  6
CONTINUOUS
 62
     7
100
AcDbLine
 10
690.741941
 20
780.805318
 30
0.0
 11
690.742517
 21
779.250237
 31
0.0
  0
ENDBLK
  5
12C5
100
AcDbEntity
  8
0
100
AcDbBlockEnd
  0
BLOCK
  5
1721
100
AcDbEntity
  8
0
100
AcDbBlockBegin
  2
*D23
 70
     1
 10
0.0
 20
0.0
 30
0.0
  3
*D23
  1

  0
LINE
  5
1718
100
AcDbEntity
  8
0
  6
BYBLOCK
 62
     0
100
AcDbLine
 10
1580.504038
 20
673.712312
 30
0.0
 11
1597.6271
 21
673.712312
 31
0.0
  0
LINE
  5
1719
100
AcDbEntity
  8
0
  6
BYBLOCK
 62
     0
100
AcDbLine
 10
1579.804038
 20
664.962312
 30
0.0
 11
1597.6271
 21
664.962312
 31
0.0
  0
LINE
  5
171A
100
AcDbEntity
  8
0
  6
BYBLOCK
 62
     0
100
AcDbLine
 10
1596.6271
 20
671.712312
 30
0.0
 11
1596.6271
 21
666.962312
 31
0.0
  0
SOLID
  5
171B
100
AcDbEntity
  8
0
  6
BYBLOCK
 62
     0
100
AcDbTrace
 10
1596.293767
 20
671.712312
 30
0.0
 11
1596.960433
 21
671.712312
 31
0.0
 12
1596.6271
 22
673.712312
 32
0.0
 13
1596.6271
 23
673.712312
 33
0.0
  0
SOLID
  5
171C
100
AcDbEntity
  8
0
  6
BYBLOCK
 62
     0
100
AcDbTrace
 10
1596.293767
 20
666.962312
 30
0.0
 11
1596.960433
 21
666.962312
 31
0.0
 12
1596.6271
 22
664.962312
 32
0.0
 13
1596.6271
 23
664.962312
 33
0.0
  0
MTEXT
  5
171D
100
AcDbEntity
  8
0
  6
BYBLOCK
 62
     7
100
AcDbMText
 10
1594.1271
 20
669.337312
 30
0.0
 40
3.0
 41
0.0
 71
     5
 72
     1
  1
\A1;G
  7
ROMANS
 11
0.0
 21
1.0
 31
0.0
  0
POINT
  5
171E
100
AcDbEntity
  8
DEFPOINTS
  6
BYBLOCK
 62
     0
100
AcDbPoint
 10
1579.504038
 20
673.712312
 30
0.0
  0
POINT
  5
171F
100
AcDbEntity
  8
DEFPOINTS
  6
BYBLOCK
 62
     0
100
AcDbPoint
 10
1578.804038
 20
664.962312
 30
0.0
  0
POINT
  5
1720
100
AcDbEntity
  8
DEFPOINTS
  6
BYBLOCK
 62
     0
100
AcDbPoint
 10
1596.6271
 20
664.962312
 30
0.0
  0
ENDBLK
  5
1722
100
AcDbEntity
  8
0
100
AcDbBlockEnd
  0
BLOCK
  5
172D
100
AcDbEntity
  8
0
100
AcDbBlockBegin
  2
*D24
 70
     1
 10
0.0
 20
0.0
 30
0.0
  3
*D24
  1

  0
LINE
  5
1724
100
AcDbEntity
  8
0
  6
BYBLOCK
 62
     0
100
AcDbLine
 10
1580.504038
 20
673.712312
 30
0.0
 11
1597.6271
 21
673.712312
 31
0.0
  0
LINE
  5
1725
100
AcDbEntity
  8
0
  6
BYBLOCK
 62
     0
100
AcDbLine
 10
1580.504038
 20
703.812312
 30
0.0
 11
1597.6271
 21
703.812312
 31
0.0
  0
LINE
  5
1726
100
AcDbEntity
  8
0
  6
BYBLOCK
 62
     0
100
AcDbLine
 10
1596.6271
 20
675.712312
 30
0.0
 11
1596.6271
 21
701.812312
 31
0.0
  0
SOLID
  5
1727
100
AcDbEntity
  8
0
  6
BYBLOCK
 62
     0
100
AcDbTrace
 10
1596.293767
 20
675.712312
 30
0.0
 11
1596.960433
 21
675.712312
 31
0.0
 12
1596.6271
 22
673.712312
 32
0.0
 13
1596.6271
 23
673.712312
 33
0.0
  0
SOLID
  5
1728
100
AcDbEntity
  8
0
  6
BYBLOCK
 62
     0
100
AcDbTrace
 10
1596.293767
 20
701.812312
 30
0.0
 11
1596.960433
 21
701.812312
 31
0.0
 12
1596.6271
 22
703.812312
 32
0.0
 13
1596.6271
 23
703.812312
 33
0.0
  0
MTEXT
  5
1729
100
AcDbEntity
  8
0
  6
BYBLOCK
 62
     7
100
AcDbMText
 10
1594.1271
 20
688.762312
 30
0.0
 40
3.0
 41
0.0
 71
     5
 72
     1
  1
\A1;F
  7
ROMANS
 11
0.0
 21
1.0
 31
0.0
  0
POINT
  5
172A
100
AcDbEntity
  8
DEFPOINTS
  6
BYBLOCK
 62
     0
100
AcDbPoint
 10
1579.504038
 20
673.712312
 30
0.0
  0
POINT
  5
172B
100
AcDbEntity
  8
DEFPOINTS
  6
BYBLOCK
 62
     0
100
AcDbPoint
 10
1579.504038
 20
703.812312
 30
0.0
  0
POINT
  5
172C
100
AcDbEntity
  8
DEFPOINTS
  6
BYBLOCK
 62
     0
100
AcDbPoint
 10
1596.6271
 20
703.812312
 30
0.0
  0
ENDBLK
  5
172E
100
AcDbEntity
  8
0
100
AcDbBlockEnd
  0
BLOCK
  5
1739
100
AcDbEntity
  8
0
100
AcDbBlockBegin
  2
*D25
 70
     1
 10
0.0
 20
0.0
 30
0.0
  3
*D25
  1

  0
LINE
  5
1730
100
AcDbEntity
  8
0
  6
BYBLOCK
 62
     0
100
AcDbLine
 10
1580.504038
 20
703.812312
 30
0.0
 11
1597.6271
 21
703.812312
 31
0.0
  0
LINE
  5
1731
100
AcDbEntity
  8
0
  6
BYBLOCK
 62
     0
100
AcDbLine
 10
1579.804038
 20
712.562312
 30
0.0
 11
1597.6271
 21
712.562312
 31
0.0
  0
LINE
  5
1732
100
AcDbEntity
  8
0
  6
BYBLOCK
 62
     0
100
AcDbLine
 10
1596.6271
 20
705.812312
 30
0.0
 11
1596.6271
 21
710.562312
 31
0.0
  0
SOLID
  5
1733
100
AcDbEntity
  8
0
  6
BYBLOCK
 62
     0
100
AcDbTrace
 10
1596.293767
 20
705.812312
 30
0.0
 11
1596.960433
 21
705.812312
 31
0.0
 12
1596.6271
 22
703.812312
 32
0.0
 13
1596.6271
 23
703.812312
 33
0.0
  0
SOLID
  5
1734
100
AcDbEntity
  8
0
  6
BYBLOCK
 62
     0
100
AcDbTrace
 10
1596.293767
 20
710.562312
 30
0.0
 11
1596.960433
 21
710.562312
 31
0.0
 12
1596.6271
 22
712.562312
 32
0.0
 13
1596.6271
 23
712.562312
 33
0.0
  0
MTEXT
  5
1735
100
AcDbEntity
  8
0
  6
BYBLOCK
 62
     7
100
AcDbMText
 10
1594.1271
 20
708.187312
 30
0.0
 40
3.0
 41
0.0
 71
     5
 72
     1
  1
\A1;G
  7
ROMANS
 11
0.0
 21
1.0
 31
0.0
  0
POINT
  5
1736
100
AcDbEntity
  8
DEFPOINTS
  6
BYBLOCK
 62
     0
100
AcDbPoint
 10
1579.504038
 20
703.812312
 30
0.0
  0
POINT
  5
1737
100
AcDbEntity
  8
DEFPOINTS
  6
BYBLOCK
 62
     0
100
AcDbPoint
 10
1578.804038
 20
712.562312
 30
0.0
  0
POINT
  5
1738
100
AcDbEntity
  8
DEFPOINTS
  6
BYBLOCK
 62
     0
100
AcDbPoint
 10
1596.6271
 20
712.562312
 30
0.0
  0
ENDBLK
  5
173A
100
AcDbEntity
  8
0
100
AcDbBlockEnd
  0
BLOCK
  5
1745
100
AcDbEntity
  8
0
100
AcDbBlockBegin
  2
*D26
 70
     1
 10
0.0
 20
0.0
 30
0.0
  3
*D26
  1

  0
LINE
  5
173C
100
AcDbEntity
  8
0
  6
BYBLOCK
 62
     0
100
AcDbLine
 10
1563.804038
 20
674.062312
 30
0.0
 11
1550.1926
 21
674.062312
 31
0.0
  0
LINE
  5
173D
100
AcDbEntity
  8
0
  6
BYBLOCK
 62
     0
100
AcDbLine
 10
1563.804038
 20
703.462312
 30
0.0
 11
1550.1926
 21
703.462312
 31
0.0
  0
LINE
  5
173E
100
AcDbEntity
  8
0
  6
BYBLOCK
 62
     0
100
AcDbLine
 10
1551.1926
 20
676.062312
 30
0.0
 11
1551.1926
 21
701.462312
 31
0.0
  0
SOLID
  5
173F
100
AcDbEntity
  8
0
  6
BYBLOCK
 62
     0
100
AcDbTrace
 10
1550.859267
 20
676.062312
 30
0.0
 11
1551.525933
 21
676.062312
 31
0.0
 12
1551.1926
 22
674.062312
 32
0.0
 13
1551.1926
 23
674.062312
 33
0.0
  0
SOLID
  5
1740
100
AcDbEntity
  8
0
  6
BYBLOCK
 62
     0
100
AcDbTrace
 10
1550.859267
 20
701.462312
 30
0.0
 11
1551.525933
 21
701.462312
 31
0.0
 12
1551.1926
 22
703.462312
 32
0.0
 13
1551.1926
 23
703.462312
 33
0.0
  0
MTEXT
  5
1741
100
AcDbEntity
  8
0
  6
BYBLOCK
 62
     7
100
AcDbMText
 10
1548.6926
 20
688.762312
 30
0.0
 40
3.0
 41
0.0
 71
     5
 72
     1
  1
\A1;C
  7
ROMANS
 11
0.0
 21
1.0
 31
0.0
  0
POINT
  5
1742
100
AcDbEntity
  8
DEFPOINTS
  6
BYBLOCK
 62
     0
100
AcDbPoint
 10
1564.804038
 20
674.062312
 30
0.0
  0
POINT
  5
1743
100
AcDbEntity
  8
DEFPOINTS
  6
BYBLOCK
 62
     0
100
AcDbPoint
 10
1564.804038
 20
703.462312
 30
0.0
  0
POINT
  5
1744
100
AcDbEntity
  8
DEFPOINTS
  6
BYBLOCK
 62
     0
100
AcDbPoint
 10
1551.1926
 20
703.462312
 30
0.0
  0
ENDBLK
  5
1746
100
AcDbEntity
  8
0
100
AcDbBlockEnd
  0
BLOCK
  5
1753
100
AcDbEntity
  8
0
100
AcDbBlockBegin
  2
*D27
 70
     1
 10
0.0
 20
0.0
 30
0.0
  3
*D27
  1

  0
LINE
  5
1748
100
AcDbEntity
  8
0
  6
BYBLOCK
 62
     0
100
AcDbLine
 10
174.532748
 20
256.766434
 30
0.0
 11
174.532748
 21
262.832222
 31
0.0
  0
LINE
  5
1749
100
AcDbEntity
  8
0
  6
BYBLOCK
 62
     0
100
AcDbLine
 10
178.732748
 20
256.766434
 30
0.0
 11
178.732748
 21
262.832222
 31
0.0
  0
LINE
  5
174A
100
AcDbEntity
  8
0
  6
BYBLOCK
 62
     0
100
AcDbLine
 10
172.532748
 20
261.832222
 30
0.0
 11
170.532748
 21
261.832222
 31
0.0
  0
LINE
  5
174B
100
AcDbEntity
  8
0
  6
BYBLOCK
 62
     0
100
AcDbLine
 10
180.732748
 20
261.832222
 30
0.0
 11
193.875605
 21
261.832222
 31
0.0
  0
LINE
  5
174C
100
AcDbEntity
  8
0
  6
BYBLOCK
 62
     0
100
AcDbLine
 10
174.532748
 20
261.832222
 30
0.0
 11
178.732748
 21
261.832222
 31
0.0
  0
SOLID
  5
174D
100
AcDbEntity
  8
0
  6
BYBLOCK
 62
     0
100
AcDbTrace
 10
172.532748
 20
262.165555
 30
0.0
 11
172.532748
 21
261.498889
 31
0.0
 12
174.532748
 22
261.832222
 32
0.0
 13
174.532748
 23
261.832222
 33
0.0
  0
SOLID
  5
174E
100
AcDbEntity
  8
0
  6
BYBLOCK
 62
     0
100
AcDbTrace
 10
180.732748
 20
262.165555
 30
0.0
 11
180.732748
 21
261.498889
 31
0.0
 12
178.732748
 22
261.832222
 32
0.0
 13
178.732748
 23
261.832222
 33
0.0
  0
MTEXT
  5
174F
100
AcDbEntity
  8
0
  6
BYBLOCK
 62
     7
100
AcDbMText
 10
188.304176
 20
264.332222
 30
0.0
 40
3.0
 41
0.0
 71
     5
 72
     1
  1
\A1;\U+2205df8
  7
ROMANS
  0
POINT
  5
1750
100
AcDbEntity
  8
DEFPOINTS
  6
BYBLOCK
 62
     0
100
AcDbPoint
 10
174.532748
 20
255.766434
 30
0.0
  0
POINT
  5
1751
100
AcDbEntity
  8
DEFPOINTS
  6
BYBLOCK
 62
     0
100
AcDbPoint
 10
178.732748
 20
255.766434
 30
0.0
  0
POINT
  5
1752
100
AcDbEntity
  8
DEFPOINTS
  6
BYBLOCK
 62
     0
100
AcDbPoint
 10
178.732748
 20
261.832222
 30
0.0
  0
ENDBLK
  5
1754
100
AcDbEntity
  8
0
100
AcDbBlockEnd
  0
BLOCK
  5
175F
100
AcDbEntity
  8
0
100
AcDbBlockBegin
  2
*D28
 70
     1
 10
0.0
 20
0.0
 30
0.0
  3
*D28
  1

  0
LINE
  5
1756
100
AcDbEntity
  8
0
  6
BYBLOCK
 62
     0
100
AcDbLine
 10
1444.78403
 20
623.255835
 30
0.0
 11
1444.78403
 21
614.8416
 31
0.0
  0
LINE
  5
1757
100
AcDbEntity
  8
0
  6
BYBLOCK
 62
     0
100
AcDbLine
 10
1422.03403
 20
623.255835
 30
0.0
 11
1422.03403
 21
614.8416
 31
0.0
  0
LINE
  5
1758
100
AcDbEntity
  8
0
  6
BYBLOCK
 62
     0
100
AcDbLine
 10
1442.78403
 20
615.8416
 30
0.0
 11
1424.03403
 21
615.8416
 31
0.0
  0
SOLID
  5
1759
100
AcDbEntity
  8
0
  6
BYBLOCK
 62
     0
100
AcDbTrace
 10
1442.78403
 20
616.174933
 30
0.0
 11
1442.78403
 21
615.508267
 31
0.0
 12
1444.78403
 22
615.8416
 32
0.0
 13
1444.78403
 23
615.8416
 33
0.0
  0
SOLID
  5
175A
100
AcDbEntity
  8
0
  6
BYBLOCK
 62
     0
100
AcDbTrace
 10
1424.03403
 20
616.174933
 30
0.0
 11
1424.03403
 21
615.508267
 31
0.0
 12
1422.03403
 22
615.8416
 32
0.0
 13
1422.03403
 23
615.8416
 33
0.0
  0
MTEXT
  5
175B
100
AcDbEntity
  8
0
  6
BYBLOCK
 62
     7
100
AcDbMText
 10
1433.40903
 20
618.3416
 30
0.0
 40
3.0
 41
0.0
 71
     5
 72
     1
  1
\A1;A
  7
ROMANS
  0
POINT
  5
175C
100
AcDbEntity
  8
DEFPOINTS
  6
BYBLOCK
 62
     0
100
AcDbPoint
 10
1444.78403
 20
624.255835
 30
0.0
  0
POINT
  5
175D
100
AcDbEntity
  8
DEFPOINTS
  6
BYBLOCK
 62
     0
100
AcDbPoint
 10
1422.03403
 20
624.255835
 30
0.0
  0
POINT
  5
175E
100
AcDbEntity
  8
DEFPOINTS
  6
BYBLOCK
 62
     0
100
AcDbPoint
 10
1422.03403
 20
615.8416
 30
0.0
  0
ENDBLK
  5
1760
100
AcDbEntity
  8
0
100
AcDbBlockEnd
  0
BLOCK
  5
176B
100
AcDbEntity
  8
0
100
AcDbBlockBegin
  2
*D29
 70
     1
 10
0.0
 20
0.0
 30
0.0
  3
*D29
  1

  0
LINE
  5
1762
100
AcDbEntity
  8
0
  6
BYBLOCK
 62
     0
100
AcDbLine
 10
1466.13403
 20
627.980835
 30
0.0
 11
1466.13403
 21
614.8416
 31
0.0
  0
LINE
  5
1763
100
AcDbEntity
  8
0
  6
BYBLOCK
 62
     0
100
AcDbLine
 10
1444.78403
 20
623.255835
 30
0.0
 11
1444.78403
 21
614.8416
 31
0.0
  0
LINE
  5
1764
100
AcDbEntity
  8
0
  6
BYBLOCK
 62
     0
100
AcDbLine
 10
1464.13403
 20
615.8416
 30
0.0
 11
1446.78403
 21
615.8416
 31
0.0
  0
SOLID
  5
1765
100
AcDbEntity
  8
0
  6
BYBLOCK
 62
     0
100
AcDbTrace
 10
1464.13403
 20
616.174933
 30
0.0
 11
1464.13403
 21
615.508267
 31
0.0
 12
1466.13403
 22
615.8416
 32
0.0
 13
1466.13403
 23
615.8416
 33
0.0
  0
SOLID
  5
1766
100
AcDbEntity
  8
0
  6
BYBLOCK
 62
     0
100
AcDbTrace
 10
1446.78403
 20
616.174933
 30
0.0
 11
1446.78403
 21
615.508267
 31
0.0
 12
1444.78403
 22
615.8416
 32
0.0
 13
1444.78403
 23
615.8416
 33
0.0
  0
MTEXT
  5
1767
100
AcDbEntity
  8
0
  6
BYBLOCK
 62
     7
100
AcDbMText
 10
1455.45903
 20
618.3416
 30
0.0
 40
3.0
 41
0.0
 71
     5
 72
     1
  1
\A1;L2
  7
ROMANS
  0
POINT
  5
1768
100
AcDbEntity
  8
DEFPOINTS
  6
BYBLOCK
 62
     0
100
AcDbPoint
 10
1466.13403
 20
628.980835
 30
0.0
  0
POINT
  5
1769
100
AcDbEntity
  8
DEFPOINTS
  6
BYBLOCK
 62
     0
100
AcDbPoint
 10
1444.78403
 20
624.255835
 30
0.0
  0
POINT
  5
176A
100
AcDbEntity
  8
DEFPOINTS
  6
BYBLOCK
 62
     0
100
AcDbPoint
 10
1444.78403
 20
615.8416
 30
0.0
  0
ENDBLK
  5
176C
100
AcDbEntity
  8
0
100
AcDbBlockEnd
  0
BLOCK
  5
1777
100
AcDbEntity
  8
0
100
AcDbBlockBegin
  2
*D30
 70
     1
 10
0.0
 20
0.0
 30
0.0
  3
*D30
  1

  0
LINE
  5
176E
100
AcDbEntity
  8
0
  6
BYBLOCK
 62
     0
100
AcDbLine
 10
1516.88403
 20
628.505835
 30
0.0
 11
1516.88403
 21
614.8416
 31
0.0
  0
LINE
  5
176F
100
AcDbEntity
  8
0
  6
BYBLOCK
 62
     0
100
AcDbLine
 10
1466.13403
 20
627.980835
 30
0.0
 11
1466.13403
 21
614.8416
 31
0.0
  0
LINE
  5
1770
100
AcDbEntity
  8
0
  6
BYBLOCK
 62
     0
100
AcDbLine
 10
1514.88403
 20
615.8416
 30
0.0
 11
1468.13403
 21
615.8416
 31
0.0
  0
SOLID
  5
1771
100
AcDbEntity
  8
0
  6
BYBLOCK
 62
     0
100
AcDbTrace
 10
1514.88403
 20
616.174933
 30
0.0
 11
1514.88403
 21
615.508267
 31
0.0
 12
1516.88403
 22
615.8416
 32
0.0
 13
1516.88403
 23
615.8416
 33
0.0
  0
SOLID
  5
1772
100
AcDbEntity
  8
0
  6
BYBLOCK
 62
     0
100
AcDbTrace
 10
1468.13403
 20
616.174933
 30
0.0
 11
1468.13403
 21
615.508267
 31
0.0
 12
1466.13403
 22
615.8416
 32
0.0
 13
1466.13403
 23
615.8416
 33
0.0
  0
MTEXT
  5
1773
100
AcDbEntity
  8
0
  6
BYBLOCK
 62
     7
100
AcDbMText
 10
1491.50903
 20
618.3416
 30
0.0
 40
3.0
 41
0.0
 71
     5
 72
     1
  1
\A1;L
  7
ROMANS
  0
POINT
  5
1774
100
AcDbEntity
  8
DEFPOINTS
  6
BYBLOCK
 62
     0
100
AcDbPoint
 10
1516.88403
 20
629.505835
 30
0.0
  0
POINT
  5
1775
100
AcDbEntity
  8
DEFPOINTS
  6
BYBLOCK
 62
     0
100
AcDbPoint
 10
1466.13403
 20
628.980835
 30
0.0
  0
POINT
  5
1776
100
AcDbEntity
  8
DEFPOINTS
  6
BYBLOCK
 62
     0
100
AcDbPoint
 10
1466.13403
 20
615.8416
 30
0.0
  0
ENDBLK
  5
1778
100
AcDbEntity
  8
0
100
AcDbBlockEnd
  0
BLOCK
  5
1784
100
AcDbEntity
  8
0
100
AcDbBlockBegin
  2
*D31
 70
     1
 10
0.0
 20
0.0
 30
0.0
  3
*D31
  1

  0
LINE
  5
177A
100
AcDbEntity
  8
0
  6
BYBLOCK
 62
     0
100
AcDbLine
 10
123.81274
 20
173.109957
 30
0.0
 11
123.81274
 21
158.395722
 31
0.0
  0
LINE
  5
177B
100
AcDbEntity
  8
0
  6
BYBLOCK
 62
     0
100
AcDbLine
 10
116.46274
 20
172.059957
 30
0.0
 11
116.46274
 21
158.395722
 31
0.0
  0
LINE
  5
177C
100
AcDbEntity
  8
0
  6
BYBLOCK
 62
     0
100
AcDbLine
 10
118.46274
 20
159.395722
 30
0.0
 11
121.81274
 21
159.395722
 31
0.0
  0
LINE
  5
177D
100
AcDbEntity
  8
0
  6
BYBLOCK
 62
     0
100
AcDbLine
 10
123.81274
 20
159.395722
 30
0.0
 11
144.664253
 21
159.395722
 31
0.0
  0
SOLID
  5
177E
100
AcDbEntity
  8
0
  6
BYBLOCK
 62
     0
100
AcDbTrace
 10
118.46274
 20
159.729055
 30
0.0
 11
118.46274
 21
159.062389
 31
0.0
 12
116.46274
 22
159.395722
 32
0.0
 13
116.46274
 23
159.395722
 33
0.0
  0
SOLID
  5
177F
100
AcDbEntity
  8
0
  6
BYBLOCK
 62
     0
100
AcDbTrace
 10
121.81274
 20
159.729055
 30
0.0
 11
121.81274
 21
159.062389
 31
0.0
 12
123.81274
 22
159.395722
 32
0.0
 13
123.81274
 23
159.395722
 33
0.0
  0
MTEXT
  5
1780
100
AcDbEntity
  8
0
  6
BYBLOCK
 62
     7
100
AcDbMText
 10
135.80711
 20
161.895722
 30
0.0
 40
3.0
 41
0.0
 71
     5
 72
     1
  1
\A1;L3 mín
  7
ROMANS
  0
POINT
  5
1781
100
AcDbEntity
  8
DEFPOINTS
  6
BYBLOCK
 62
     0
100
AcDbPoint
 10
123.81274
 20
174.109957
 30
0.0
  0
POINT
  5
1782
100
AcDbEntity
  8
DEFPOINTS
  6
BYBLOCK
 62
     0
100
AcDbPoint
 10
116.46274
 20
173.059957
 30
0.0
  0
POINT
  5
1783
100
AcDbEntity
  8
DEFPOINTS
  6
BYBLOCK
 62
     0
100
AcDbPoint
 10
116.46274
 20
159.395722
 30
0.0
  0
ENDBLK
  5
1785
100
AcDbEntity
  8
0
100
AcDbBlockEnd
  0
BLOCK
  5
1790
100
AcDbEntity
  8
0
100
AcDbBlockBegin
  2
*D32
 70
     1
 10
0.0
 20
0.0
 30
0.0
  3
*D32
  1

  0
LINE
  5
1787
100
AcDbEntity
  8
0
  6
BYBLOCK
 62
     0
100
AcDbLine
 10
1421.03403
 20
624.255835
 30
0.0
 11
1412.253975
 21
624.255835
 31
0.0
  0
LINE
  5
1788
100
AcDbEntity
  8
0
  6
BYBLOCK
 62
     0
100
AcDbLine
 10
1421.03403
 20
648.755835
 30
0.0
 11
1412.253975
 21
648.755835
 31
0.0
  0
LINE
  5
1789
100
AcDbEntity
  8
0
  6
BYBLOCK
 62
     0
100
AcDbLine
 10
1413.253975
 20
626.255835
 30
0.0
 11
1413.253975
 21
646.755835
 31
0.0
  0
SOLID
  5
178A
100
AcDbEntity
  8
0
  6
BYBLOCK
 62
     0
100
AcDbTrace
 10
1412.920642
 20
626.255835
 30
0.0
 11
1413.587309
 21
626.255835
 31
0.0
 12
1413.253975
 22
624.255835
 32
0.0
 13
1413.253975
 23
624.255835
 33
0.0
  0
SOLID
  5
178B
100
AcDbEntity
  8
0
  6
BYBLOCK
 62
     0
100
AcDbTrace
 10
1412.920642
 20
646.755835
 30
0.0
 11
1413.587309
 21
646.755835
 31
0.0
 12
1413.253975
 22
648.755835
 32
0.0
 13
1413.253975
 23
648.755835
 33
0.0
  0
MTEXT
  5
178C
100
AcDbEntity
  8
0
  6
BYBLOCK
 62
     7
100
AcDbMText
 10
1410.753975
 20
636.505835
 30
0.0
 40
3.0
 41
0.0
 71
     5
 72
     1
  1
\A1;B
  7
ROMANS
 11
0.0
 21
1.0
 31
0.0
  0
POINT
  5
178D
100
AcDbEntity
  8
DEFPOINTS
  6
BYBLOCK
 62
     0
100
AcDbPoint
 10
1422.03403
 20
624.255835
 30
0.0
  0
POINT
  5
178E
100
AcDbEntity
  8
DEFPOINTS
  6
BYBLOCK
 62
     0
100
AcDbPoint
 10
1422.03403
 20
648.755835
 30
0.0
  0
POINT
  5
178F
100
AcDbEntity
  8
DEFPOINTS
  6
BYBLOCK
 62
     0
100
AcDbPoint
 10
1413.253975
 20
648.755835
 30
0.0
  0
ENDBLK
  5
1791
100
AcDbEntity
  8
0
100
AcDbBlockEnd
  0
BLOCK
  5
179B
100
AcDbEntity
  8
0
100
AcDbBlockBegin
  2
*D33
 70
     1
 10
0.0
 20
0.0
 30
0.0
  3
*D33
  1

  0
LINE
  5
1793
100
AcDbEntity
  8
0
  6
BYBLOCK
 62
     0
100
AcDbLine
 10
1444.620501
 20
655.413969
 30
0.0
 11
1441.123178
 21
649.515737
 31
0.0
  0
LINE
  5
1794
100
AcDbEntity
  8
0
  6
BYBLOCK
 62
     0
100
AcDbLine
 10
1425.694882
 20
623.495933
 30
0.0
 11
1424.67483
 21
621.775615
 31
0.0
  0
MTEXT
  5
1795
100
AcDbEntity
  8
0
  6
BYBLOCK
 62
     7
100
AcDbMText
 10
1441.522912
 20
655.091597
 30
0.0
 40
3.0
 41
0.0
 71
     5
 72
     1
  1
\A1;b
  7
ROMANS
 11
0.510026
 21
0.860159
 31
0.0
  0
LINE
  5
1796
100
AcDbEntity
  8
0
  6
BYBLOCK
 62
     0
100
AcDbLine
 10
1426.714935
 20
625.21625
 30
0.0
 11
1440.103125
 21
647.795419
 31
0.0
  0
SOLID
  5
1797
100
AcDbEntity
  8
0
  6
BYBLOCK
 62
     0
100
AcDbTrace
 10
1425.408163
 20
623.665942
 30
0.0
 11
1425.981602
 21
623.325924
 31
0.0
 12
1426.714935
 22
625.21625
 32
0.0
 13
1426.714935
 23
625.21625
 33
0.0
  0
SOLID
  5
1798
100
AcDbEntity
  8
0
  6
BYBLOCK
 62
     0
100
AcDbTrace
 10
1440.836458
 20
649.685745
 30
0.0
 11
1441.409898
 21
649.345728
 31
0.0
 12
1440.103125
 22
647.795419
 32
0.0
 13
1440.103125
 23
647.795419
 33
0.0
  0
POINT
  5
1799
100
AcDbEntity
  8
DEFPOINTS
  6
BYBLOCK
 62
     0
100
AcDbPoint
 10
1440.103125
 20
647.795419
 30
0.0
  0
POINT
  5
179A
100
AcDbEntity
  8
DEFPOINTS
  6
BYBLOCK
 62
     0
100
AcDbPoint
 10
1426.714935
 20
625.21625
 30
0.0
  0
ENDBLK
  5
179C
100
AcDbEntity
  8
0
100
AcDbBlockEnd
  0
BLOCK
  5
17A6
100
AcDbEntity
  8
0
100
AcDbBlockBegin
  2
*D34
 70
     1
 10
0.0
 20
0.0
 30
0.0
  3
*D34
  1

  0
LINE
  5
179E
100
AcDbEntity
  8
0
  6
BYBLOCK
 62
     0
100
AcDbLine
 10
1422.984744
 20
657.095995
 30
0.0
 11
1427.921036
 21
647.34578
 31
0.0
  0
LINE
  5
179F
100
AcDbEntity
  8
0
  6
BYBLOCK
 62
     0
100
AcDbLine
 10
1438.897025
 20
625.665889
 30
0.0
 11
1439.800398
 21
623.881536
 31
0.0
  0
MTEXT
  5
17A0
100
AcDbEntity
  8
0
  6
BYBLOCK
 62
     7
100
AcDbMText
 10
1426.118559
 20
656.440859
 30
0.0
 40
3.0
 41
0.0
 71
     5
 72
     1
  1
\A1;D
  7
ROMANS
 11
0.451687
 21
-0.892177
 31
0.0
  0
LINE
  5
17A1
100
AcDbEntity
  8
0
  6
BYBLOCK
 62
     0
100
AcDbLine
 10
1437.993651
 20
627.450243
 30
0.0
 11
1428.824409
 21
645.561427
 31
0.0
  0
SOLID
  5
17A2
100
AcDbEntity
  8
0
  6
BYBLOCK
 62
     0
100
AcDbTrace
 10
1439.194417
 20
625.816452
 30
0.0
 11
1438.599633
 21
625.515327
 31
0.0
 12
1437.993651
 22
627.450243
 32
0.0
 13
1437.993651
 23
627.450243
 33
0.0
  0
SOLID
  5
17A3
100
AcDbEntity
  8
0
  6
BYBLOCK
 62
     0
100
AcDbTrace
 10
1428.218428
 20
647.496342
 30
0.0
 11
1427.623643
 21
647.195218
 31
0.0
 12
1428.824409
 22
645.561427
 32
0.0
 13
1428.824409
 23
645.561427
 33
0.0
  0
POINT
  5
17A4
100
AcDbEntity
  8
DEFPOINTS
  6
BYBLOCK
 62
     0
100
AcDbPoint
 10
1428.824409
 20
645.561427
 30
0.0
  0
POINT
  5
17A5
100
AcDbEntity
  8
DEFPOINTS
  6
BYBLOCK
 62
     0
100
AcDbPoint
 10
1437.993651
 20
627.450243
 30
0.0
  0
ENDBLK
  5
17A7
100
AcDbEntity
  8
0
100
AcDbBlockEnd
  0
BLOCK
  5
17B2
100
AcDbEntity
  8
0
100
AcDbBlockBegin
  2
*D35
 70
     1
 10
0.0
 20
0.0
 30
0.0
  3
*D35
  1

  0
LINE
  5
17A9
100
AcDbEntity
  8
0
  6
BYBLOCK
 62
     0
100
AcDbLine
 10
1419.98403
 20
680.887312
 30
0.0
 11
1412.317875
 21
680.887312
 31
0.0
  0
LINE
  5
17AA
100
AcDbEntity
  8
0
  6
BYBLOCK
 62
     0
100
AcDbLine
 10
1419.98403
 20
696.637312
 30
0.0
 11
1412.317875
 21
696.637312
 31
0.0
  0
LINE
  5
17AB
100
AcDbEntity
  8
0
  6
BYBLOCK
 62
     0
100
AcDbLine
 10
1413.317875
 20
682.887312
 30
0.0
 11
1413.317875
 21
694.637312
 31
0.0
  0
SOLID
  5
17AC
100
AcDbEntity
  8
0
  6
BYBLOCK
 62
     0
100
AcDbTrace
 10
1412.984542
 20
682.887312
 30
0.0
 11
1413.651209
 21
682.887312
 31
0.0
 12
1413.317875
 22
680.887312
 32
0.0
 13
1413.317875
 23
680.887312
 33
0.0
  0
SOLID
  5
17AD
100
AcDbEntity
  8
0
  6
BYBLOCK
 62
     0
100
AcDbTrace
 10
1412.984542
 20
694.637312
 30
0.0
 11
1413.651209
 21
694.637312
 31
0.0
 12
1413.317875
 22
696.637312
 32
0.0
 13
1413.317875
 23
696.637312
 33
0.0
  0
MTEXT
  5
17AE
100
AcDbEntity
  8
0
  6
BYBLOCK
 62
     7
100
AcDbMText
 10
1410.817875
 20
688.762312
 30
0.0
 40
3.0
 41
0.0
 71
     5
 72
     1
  1
\A1;a
  7
ROMANS
 11
0.0
 21
1.0
 31
0.0
  0
POINT
  5
17AF
100
AcDbEntity
  8
DEFPOINTS
  6
BYBLOCK
 62
     0
100
AcDbPoint
 10
1420.98403
 20
680.887312
 30
0.0
  0
POINT
  5
17B0
100
AcDbEntity
  8
DEFPOINTS
  6
BYBLOCK
 62
     0
100
AcDbPoint
 10
1420.98403
 20
696.637312
 30
0.0
  0
POINT
  5
17B1
100
AcDbEntity
  8
DEFPOINTS
  6
BYBLOCK
 62
     0
100
AcDbPoint
 10
1413.317875
 20
696.637312
 30
0.0
  0
ENDBLK
  5
17B3
100
AcDbEntity
  8
0
100
AcDbBlockEnd
  0
BLOCK
  5
17BE
100
AcDbEntity
  8
0
100
AcDbBlockBegin
  2
*D36
 70
     1
 10
0.0
 20
0.0
 30
0.0
  3
*D36
  1

  0
LINE
  5
17B5
100
AcDbEntity
  8
0
  6
BYBLOCK
 62
     0
100
AcDbLine
 10
40.86274
 20
243.291434
 30
0.0
 11
40.86274
 21
262.832222
 31
0.0
  0
LINE
  5
17B6
100
AcDbEntity
  8
0
  6
BYBLOCK
 62
     0
100
AcDbLine
 10
25.11274
 20
243.291434
 30
0.0
 11
25.11274
 21
262.832222
 31
0.0
  0
LINE
  5
17B7
100
AcDbEntity
  8
0
  6
BYBLOCK
 62
     0
100
AcDbLine
 10
38.86274
 20
261.832222
 30
0.0
 11
27.11274
 21
261.832222
 31
0.0
  0
SOLID
  5
17B8
100
AcDbEntity
  8
0
  6
BYBLOCK
 62
     0
100
AcDbTrace
 10
38.86274
 20
262.165555
 30
0.0
 11
38.86274
 21
261.498889
 31
0.0
 12
40.86274
 22
261.832222
 32
0.0
 13
40.86274
 23
261.832222
 33
0.0
  0
SOLID
  5
17B9
100
AcDbEntity
  8
0
  6
BYBLOCK
 62
     0
100
AcDbTrace
 10
27.11274
 20
262.165555
 30
0.0
 11
27.11274
 21
261.498889
 31
0.0
 12
25.11274
 22
261.832222
 32
0.0
 13
25.11274
 23
261.832222
 33
0.0
  0
MTEXT
  5
17BA
100
AcDbEntity
  8
0
  6
BYBLOCK
 62
     7
100
AcDbMText
 10
32.98774
 20
264.332222
 30
0.0
 40
3.0
 41
0.0
 71
     5
 72
     1
  1
\A1;a
  7
ROMANS
  0
POINT
  5
17BB
100
AcDbEntity
  8
DEFPOINTS
  6
BYBLOCK
 62
     0
100
AcDbPoint
 10
40.86274
 20
242.291434
 30
0.0
  0
POINT
  5
17BC
100
AcDbEntity
  8
DEFPOINTS
  6
BYBLOCK
 62
     0
100
AcDbPoint
 10
25.11274
 20
242.291434
 30
0.0
  0
POINT
  5
17BD
100
AcDbEntity
  8
DEFPOINTS
  6
BYBLOCK
 62
     0
100
AcDbPoint
 10
25.11274
 20
261.832222
 30
0.0
  0
ENDBLK
  5
17BF
100
AcDbEntity
  8
0
100
AcDbBlockEnd
  0
BLOCK
  5
17CA
100
AcDbEntity
  8
0
100
AcDbBlockBegin
  2
*D37
 70
     1
 10
0.0
 20
0.0
 30
0.0
  3
*D37
  1

  0
LINE
  5
17C1
100
AcDbEntity
  8
0
  6
BYBLOCK
 62
     0
100
AcDbLine
 10
92.08774
 20
225.316434
 30
0.0
 11
97.795685
 21
225.316434
 31
0.0
  0
LINE
  5
17C2
100
AcDbEntity
  8
0
  6
BYBLOCK
 62
     0
100
AcDbLine
 10
92.08774
 20
239.316434
 30
0.0
 11
97.795685
 21
239.316434
 31
0.0
  0
LINE
  5
17C3
100
AcDbEntity
  8
0
  6
BYBLOCK
 62
     0
100
AcDbLine
 10
96.795685
 20
227.316434
 30
0.0
 11
96.795685
 21
237.316434
 31
0.0
  0
SOLID
  5
17C4
100
AcDbEntity
  8
0
  6
BYBLOCK
 62
     0
100
AcDbTrace
 10
96.462352
 20
227.316434
 30
0.0
 11
97.129019
 21
227.316434
 31
0.0
 12
96.795685
 22
225.316434
 32
0.0
 13
96.795685
 23
225.316434
 33
0.0
  0
SOLID
  5
17C5
100
AcDbEntity
  8
0
  6
BYBLOCK
 62
     0
100
AcDbTrace
 10
96.462352
 20
237.316434
 30
0.0
 11
97.129019
 21
237.316434
 31
0.0
 12
96.795685
 22
239.316434
 32
0.0
 13
96.795685
 23
239.316434
 33
0.0
  0
MTEXT
  5
17C6
100
AcDbEntity
  8
0
  6
BYBLOCK
 62
     7
100
AcDbMText
 10
94.295685
 20
232.316434
 30
0.0
 40
3.0
 41
0.0
 71
     5
 72
     1
  1
\A1;\U+2205D3
  7
ROMANS
 11
0.0
 21
1.0
 31
0.0
  0
POINT
  5
17C7
100
AcDbEntity
  8
DEFPOINTS
  6
BYBLOCK
 62
     0
100
AcDbPoint
 10
91.08774
 20
225.316434
 30
0.0
  0
POINT
  5
17C8
100
AcDbEntity
  8
DEFPOINTS
  6
BYBLOCK
 62
     0
100
AcDbPoint
 10
91.08774
 20
239.316434
 30
0.0
  0
POINT
  5
17C9
100
AcDbEntity
  8
DEFPOINTS
  6
BYBLOCK
 62
     0
100
AcDbPoint
 10
96.795685
 20
239.316434
 30
0.0
  0
ENDBLK
  5
17CB
100
AcDbEntity
  8
0
100
AcDbBlockEnd
  0
BLOCK
  5
17D7
100
AcDbEntity
  8
0
100
AcDbBlockBegin
  2
*D38
 70
     1
 10
0.0
 20
0.0
 30
0.0
  3
*D38
  1

  0
LINE
  5
17CD
100
AcDbEntity
  8
0
  6
BYBLOCK
 62
     0
100
AcDbLine
 10
124.81274
 20
227.406646
 30
0.0
 11
131.973385
 21
227.406646
 31
0.0
  0
LINE
  5
17CE
100
AcDbEntity
  8
0
  6
BYBLOCK
 62
     0
100
AcDbLine
 10
124.731065
 20
237.226222
 30
0.0
 11
131.973385
 21
237.226222
 31
0.0
  0
LINE
  5
17CF
100
AcDbEntity
  8
0
  6
BYBLOCK
 62
     0
100
AcDbLine
 10
130.973385
 20
229.406646
 30
0.0
 11
130.973385
 21
235.226222
 31
0.0
  0
LINE
  5
17D0
100
AcDbEntity
  8
0
  6
BYBLOCK
 62
     0
100
AcDbLine
 10
130.973385
 20
237.226222
 30
0.0
 11
130.973385
 21
245.083365
 31
0.0
  0
SOLID
  5
17D1
100
AcDbEntity
  8
0
  6
BYBLOCK
 62
     0
100
AcDbTrace
 10
130.640052
 20
229.406646
 30
0.0
 11
131.306719
 21
229.406646
 31
0.0
 12
130.973385
 22
227.406646
 32
0.0
 13
130.973385
 23
227.406646
 33
0.0
  0
SOLID
  5
17D2
100
AcDbEntity
  8
0
  6
BYBLOCK
 62
     0
100
AcDbTrace
 10
130.640052
 20
235.226222
 30
0.0
 11
131.306719
 21
235.226222
 31
0.0
 12
130.973385
 22
237.226222
 32
0.0
 13
130.973385
 23
237.226222
 33
0.0
  0
MTEXT
  5
17D3
100
AcDbEntity
  8
0
  6
BYBLOCK
 62
     7
100
AcDbMText
 10
128.473385
 20
242.154793
 30
0.0
 40
3.0
 41
0.0
 71
     5
 72
     1
  1
\A1;d1
  7
ROMANS
 11
0.0
 21
1.0
 31
0.0
  0
POINT
  5
17D4
100
AcDbEntity
  8
DEFPOINTS
  6
BYBLOCK
 62
     0
100
AcDbPoint
 10
123.81274
 20
227.406646
 30
0.0
  0
POINT
  5
17D5
100
AcDbEntity
  8
DEFPOINTS
  6
BYBLOCK
 62
     0
100
AcDbPoint
 10
123.731065
 20
237.226222
 30
0.0
  0
POINT
  5
17D6
100
AcDbEntity
  8
DEFPOINTS
  6
BYBLOCK
 62
     0
100
AcDbPoint
 10
130.973385
 20
237.226222
 30
0.0
  0
ENDBLK
  5
17D8
100
AcDbEntity
  8
0
100
AcDbBlockEnd
  0
BLOCK
  5
17E3
100
AcDbEntity
  8
0
100
AcDbBlockBegin
  2
*D39
 70
     1
 10
0.0
 20
0.0
 30
0.0
  3
*D39
  1

  0
LINE
  5
17DA
100
AcDbEntity
  8
0
  6
BYBLOCK
 62
     0
100
AcDbLine
 10
124.81274
 20
226.366434
 30
0.0
 11
138.533085
 21
226.366434
 31
0.0
  0
LINE
  5
17DB
100
AcDbEntity
  8
0
  6
BYBLOCK
 62
     0
100
AcDbLine
 10
124.81274
 20
238.266434
 30
0.0
 11
138.533085
 21
238.266434
 31
0.0
  0
LINE
  5
17DC
100
AcDbEntity
  8
0
  6
BYBLOCK
 62
     0
100
AcDbLine
 10
137.533085
 20
228.366434
 30
0.0
 11
137.533085
 21
236.266434
 31
0.0
  0
SOLID
  5
17DD
100
AcDbEntity
  8
0
  6
BYBLOCK
 62
     0
100
AcDbTrace
 10
137.199752
 20
228.366434
 30
0.0
 11
137.866419
 21
228.366434
 31
0.0
 12
137.533085
 22
226.366434
 32
0.0
 13
137.533085
 23
226.366434
 33
0.0
  0
SOLID
  5
17DE
100
AcDbEntity
  8
0
  6
BYBLOCK
 62
     0
100
AcDbTrace
 10
137.199752
 20
236.266434
 30
0.0
 11
137.866419
 21
236.266434
 31
0.0
 12
137.533085
 22
238.266434
 32
0.0
 13
137.533085
 23
238.266434
 33
0.0
  0
MTEXT
  5
17DF
100
AcDbEntity
  8
0
  6
BYBLOCK
 62
     7
100
AcDbMText
 10
135.033085
 20
232.316434
 30
0.0
 40
3.0
 41
0.0
 71
     5
 72
     1
  1
\A1;\U+2205d2
  7
ROMANS
 11
0.0
 21
1.0
 31
0.0
  0
POINT
  5
17E0
100
AcDbEntity
  8
DEFPOINTS
  6
BYBLOCK
 62
     0
100
AcDbPoint
 10
123.81274
 20
226.366434
 30
0.0
  0
POINT
  5
17E1
100
AcDbEntity
  8
DEFPOINTS
  6
BYBLOCK
 62
     0
100
AcDbPoint
 10
123.81274
 20
238.266434
 30
0.0
  0
POINT
  5
17E2
100
AcDbEntity
  8
DEFPOINTS
  6
BYBLOCK
 62
     0
100
AcDbPoint
 10
137.533085
 20
238.266434
 30
0.0
  0
ENDBLK
  5
17E4
100
AcDbEntity
  8
0
100
AcDbBlockEnd
  0
BLOCK
  5
17F1
100
AcDbEntity
  8
0
100
AcDbBlockBegin
  2
*D40
 70
     1
 10
0.0
 20
0.0
 30
0.0
  3
*D40
  1

  0
LINE
  5
17E6
100
AcDbEntity
  8
0
  6
BYBLOCK
 62
     0
100
AcDbLine
 10
119.243885
 20
238.632122
 30
0.0
 11
119.243885
 21
250.204
 31
0.0
  0
LINE
  5
17E7
100
AcDbEntity
  8
0
  6
BYBLOCK
 62
     0
100
AcDbLine
 10
123.81274
 20
239.266434
 30
0.0
 11
123.81274
 21
250.204
 31
0.0
  0
LINE
  5
17E8
100
AcDbEntity
  8
0
  6
BYBLOCK
 62
     0
100
AcDbLine
 10
117.243885
 20
249.204
 30
0.0
 11
115.243885
 21
249.204
 31
0.0
  0
LINE
  5
17E9
100
AcDbEntity
  8
0
  6
BYBLOCK
 62
     0
100
AcDbLine
 10
125.81274
 20
249.204
 30
0.0
 11
134.241312
 21
249.204
 31
0.0
  0
LINE
  5
17EA
100
AcDbEntity
  8
0
  6
BYBLOCK
 62
     0
100
AcDbLine
 10
119.243885
 20
249.204
 30
0.0
 11
123.81274
 21
249.204
 31
0.0
  0
SOLID
  5
17EB
100
AcDbEntity
  8
0
  6
BYBLOCK
 62
     0
100
AcDbTrace
 10
117.243885
 20
249.537333
 30
0.0
 11
117.243885
 21
248.870667
 31
0.0
 12
119.243885
 22
249.204
 32
0.0
 13
119.243885
 23
249.204
 33
0.0
  0
SOLID
  5
17EC
100
AcDbEntity
  8
0
  6
BYBLOCK
 62
     0
100
AcDbTrace
 10
125.81274
 20
249.537333
 30
0.0
 11
125.81274
 21
248.870667
 31
0.0
 12
123.81274
 22
249.204
 32
0.0
 13
123.81274
 23
249.204
 33
0.0
  0
MTEXT
  5
17ED
100
AcDbEntity
  8
0
  6
BYBLOCK
 62
     7
100
AcDbMText
 10
131.027026
 20
251.704
 30
0.0
 40
3.0
 41
0.0
 71
     5
 72
     1
  1
\A1;L4
  7
ROMANS
  0
POINT
  5
17EE
100
AcDbEntity
  8
DEFPOINTS
  6
BYBLOCK
 62
     0
100
AcDbPoint
 10
119.243885
 20
237.632122
 30
0.0
  0
POINT
  5
17EF
100
AcDbEntity
  8
DEFPOINTS
  6
BYBLOCK
 62
     0
100
AcDbPoint
 10
123.81274
 20
238.266434
 30
0.0
  0
POINT
  5
17F0
100
AcDbEntity
  8
DEFPOINTS
  6
BYBLOCK
 62
     0
100
AcDbPoint
 10
123.81274
 20
249.204
 30
0.0
  0
ENDBLK
  5
17F2
100
AcDbEntity
  8
0
100
AcDbBlockEnd
  0
BLOCK
  5
17FD
100
AcDbEntity
  8
0
100
AcDbBlockBegin
  2
*D41
 70
     1
 10
0.0
 20
0.0
 30
0.0
  3
*D41
  1

  0
LINE
  5
17F4
100
AcDbEntity
  8
0
  6
BYBLOCK
 62
     0
100
AcDbLine
 10
1561.71313
 20
680.887312
 30
0.0
 11
1557.9645
 21
680.887312
 31
0.0
  0
LINE
  5
17F5
100
AcDbEntity
  8
0
  6
BYBLOCK
 62
     0
100
AcDbLine
 10
1562.13635
 20
696.637312
 30
0.0
 11
1557.9645
 21
696.637312
 31
0.0
  0
LINE
  5
17F6
100
AcDbEntity
  8
0
  6
BYBLOCK
 62
     0
100
AcDbLine
 10
1558.9645
 20
682.887312
 30
0.0
 11
1558.9645
 21
694.637312
 31
0.0
  0
SOLID
  5
17F7
100
AcDbEntity
  8
0
  6
BYBLOCK
 62
     0
100
AcDbTrace
 10
1558.631167
 20
682.887312
 30
0.0
 11
1559.297833
 21
682.887312
 31
0.0
 12
1558.9645
 22
680.887312
 32
0.0
 13
1558.9645
 23
680.887312
 33
0.0
  0
SOLID
  5
17F8
100
AcDbEntity
  8
0
  6
BYBLOCK
 62
     0
100
AcDbTrace
 10
1558.631167
 20
694.637312
 30
0.0
 11
1559.297833
 21
694.637312
 31
0.0
 12
1558.9645
 22
696.637312
 32
0.0
 13
1558.9645
 23
696.637312
 33
0.0
  0
MTEXT
  5
17F9
100
AcDbEntity
  8
0
  6
BYBLOCK
 62
     7
100
AcDbMText
 10
1556.4645
 20
688.762312
 30
0.0
 40
3.0
 41
0.0
 71
     5
 72
     1
  1
\A1;a
  7
ROMANS
 11
0.0
 21
1.0
 31
0.0
  0
POINT
  5
17FA
100
AcDbEntity
  8
DEFPOINTS
  6
BYBLOCK
 62
     0
100
AcDbPoint
 10
1562.71313
 20
680.887312
 30
0.0
  0
POINT
  5
17FB
100
AcDbEntity
  8
DEFPOINTS
  6
BYBLOCK
 62
     0
100
AcDbPoint
 10
1563.13635
 20
696.637312
 30
0.0
  0
POINT
  5
17FC
100
AcDbEntity
  8
DEFPOINTS
  6
BYBLOCK
 62
     0
100
AcDbPoint
 10
1558.9645
 20
696.637312
 30
0.0
  0
ENDBLK
  5
17FE
100
AcDbEntity
  8
0
100
AcDbBlockEnd
  0
BLOCK
  5
1808
100
AcDbEntity
  8
0
100
AcDbBlockBegin
  2
*D42
 70
     1
 10
0.0
 20
0.0
 30
0.0
  3
*D42
  1

  0
LINE
  5
1800
100
AcDbEntity
  8
0
  6
BYBLOCK
 62
     0
100
AcDbLine
 10
1563.973144
 20
665.151378
 30
0.0
 11
1568.221073
 21
677.991659
 31
0.0
  0
LINE
  5
1801
100
AcDbEntity
  8
0
  6
BYBLOCK
 62
     0
100
AcDbLine
 10
1570.137002
 20
683.782965
 30
0.0
 11
1570.765175
 21
685.681754
 31
0.0
  0
MTEXT
  5
1802
100
AcDbEntity
  8
0
  6
BYBLOCK
 62
     7
100
AcDbMText
 10
1561.958614
 20
667.021616
 30
0.0
 40
3.0
 41
0.0
 71
     5
 72
     1
  1
\A1;i
  7
ROMANS
 11
0.314087
 21
0.949394
 31
0.0
  0
LINE
  5
1803
100
AcDbEntity
  8
0
  6
BYBLOCK
 62
     0
100
AcDbLine
 10
1569.508829
 20
681.884176
 30
0.0
 11
1568.849247
 21
679.890448
 31
0.0
  0
SOLID
  5
1804
100
AcDbEntity
  8
0
  6
BYBLOCK
 62
     0
100
AcDbTrace
 10
1569.820537
 20
683.88766
 30
0.0
 11
1570.453466
 21
683.678269
 31
0.0
 12
1569.508829
 22
681.884176
 32
0.0
 13
1569.508829
 23
681.884176
 33
0.0
  0
SOLID
  5
1805
100
AcDbEntity
  8
0
  6
BYBLOCK
 62
     0
100
AcDbTrace
 10
1567.904609
 20
678.096355
 30
0.0
 11
1568.537538
 21
677.886964
 31
0.0
 12
1568.849247
 22
679.890448
 32
0.0
 13
1568.849247
 23
679.890448
 33
0.0
  0
POINT
  5
1806
100
AcDbEntity
  8
DEFPOINTS
  6
BYBLOCK
 62
     0
100
AcDbPoint
 10
1568.849247
 20
679.890448
 30
0.0
  0
POINT
  5
1807
100
AcDbEntity
  8
DEFPOINTS
  6
BYBLOCK
 62
     0
100
AcDbPoint
 10
1569.508829
 20
681.884176
 30
0.0
  0
ENDBLK
  5
1809
100
AcDbEntity
  8
0
100
AcDbBlockEnd
  0
BLOCK
  5
1814
100
AcDbEntity
  8
0
100
AcDbBlockBegin
  2
*D43
 70
     1
 10
0.0
 20
0.0
 30
0.0
  3
*D43
  1

  0
LINE
  5
180B
100
AcDbEntity
  8
0
  6
BYBLOCK
 62
     0
100
AcDbLine
 10
1567.773788
 20
672.012312
 30
0.0
 11
1567.773788
 21
654.3976
 31
0.0
  0
LINE
  5
180C
100
AcDbEntity
  8
0
  6
BYBLOCK
 62
     0
100
AcDbLine
 10
1586.334288
 20
672.012312
 30
0.0
 11
1586.334288
 21
654.3976
 31
0.0
  0
LINE
  5
180D
100
AcDbEntity
  8
0
  6
BYBLOCK
 62
     0
100
AcDbLine
 10
1569.773788
 20
655.3976
 30
0.0
 11
1584.334288
 21
655.3976
 31
0.0
  0
SOLID
  5
180E
100
AcDbEntity
  8
0
  6
BYBLOCK
 62
     0
100
AcDbTrace
 10
1569.773788
 20
655.730933
 30
0.0
 11
1569.773788
 21
655.064267
 31
0.0
 12
1567.773788
 22
655.3976
 32
0.0
 13
1567.773788
 23
655.3976
 33
0.0
  0
SOLID
  5
180F
100
AcDbEntity
  8
0
  6
BYBLOCK
 62
     0
100
AcDbTrace
 10
1584.334288
 20
655.730933
 30
0.0
 11
1584.334288
 21
655.064267
 31
0.0
 12
1586.334288
 22
655.3976
 32
0.0
 13
1586.334288
 23
655.3976
 33
0.0
  0
MTEXT
  5
1810
100
AcDbEntity
  8
0
  6
BYBLOCK
 62
     7
100
AcDbMText
 10
1577.054038
 20
657.8976
 30
0.0
 40
3.0
 41
0.0
 71
     5
 72
     1
  1
\A1;a
  7
ROMANS
  0
POINT
  5
1811
100
AcDbEntity
  8
DEFPOINTS
  6
BYBLOCK
 62
     0
100
AcDbPoint
 10
1567.773788
 20
673.012312
 30
0.0
  0
POINT
  5
1812
100
AcDbEntity
  8
DEFPOINTS
  6
BYBLOCK
 62
     0
100
AcDbPoint
 10
1586.334288
 20
673.012312
 30
0.0
  0
POINT
  5
1813
100
AcDbEntity
  8
DEFPOINTS
  6
BYBLOCK
 62
     0
100
AcDbPoint
 10
1586.334288
 20
655.3976
 30
0.0
  0
ENDBLK
  5
1815
100
AcDbEntity
  8
0
100
AcDbBlockEnd
  0
BLOCK
  5
1821
100
AcDbEntity
  8
0
100
AcDbBlockBegin
  2
*D44
 70
     1
 10
0.0
 20
0.0
 30
0.0
  3
*D44
  1

  0
LINE
  5
1817
100
AcDbEntity
  8
0
  6
BYBLOCK
 62
     0
100
AcDbLine
 10
1422.03403
 20
673.062312
 30
0.0
 11
1422.03403
 21
661.874
 31
0.0
  0
LINE
  5
1818
100
AcDbEntity
  8
0
  6
BYBLOCK
 62
     0
100
AcDbLine
 10
1433.40903
 20
662.912312
 30
0.0
 11
1433.40903
 21
661.874
 31
0.0
  0
LINE
  5
1819
100
AcDbEntity
  8
0
  6
BYBLOCK
 62
     0
100
AcDbLine
 10
1431.40903
 20
662.874
 30
0.0
 11
1424.03403
 21
662.874
 31
0.0
  0
LINE
  5
181A
100
AcDbEntity
  8
0
  6
BYBLOCK
 62
     0
100
AcDbLine
 10
1422.03403
 20
662.874
 30
0.0
 11
1414.53403
 21
662.874
 31
0.0
  0
SOLID
  5
181B
100
AcDbEntity
  8
0
  6
BYBLOCK
 62
     0
100
AcDbTrace
 10
1431.40903
 20
663.207333
 30
0.0
 11
1431.40903
 21
662.540667
 31
0.0
 12
1433.40903
 22
662.874
 32
0.0
 13
1433.40903
 23
662.874
 33
0.0
  0
SOLID
  5
181C
100
AcDbEntity
  8
0
  6
BYBLOCK
 62
     0
100
AcDbTrace
 10
1424.03403
 20
663.207333
 30
0.0
 11
1424.03403
 21
662.540667
 31
0.0
 12
1422.03403
 22
662.874
 32
0.0
 13
1422.03403
 23
662.874
 33
0.0
  0
MTEXT
  5
181D
100
AcDbEntity
  8
0
  6
BYBLOCK
 62
     7
100
AcDbMText
 10
1416.53403
 20
665.374
 30
0.0
 40
3.0
 41
0.0
 71
     5
 72
     1
  1
\A1;H
  7
ROMANS
  0
POINT
  5
181E
100
AcDbEntity
  8
DEFPOINTS
  6
BYBLOCK
 62
     0
100
AcDbPoint
 10
1422.03403
 20
674.062312
 30
0.0
  0
POINT
  5
181F
100
AcDbEntity
  8
DEFPOINTS
  6
BYBLOCK
 62
     0
100
AcDbPoint
 10
1433.40903
 20
663.912312
 30
0.0
  0
POINT
  5
1820
100
AcDbEntity
  8
DEFPOINTS
  6
BYBLOCK
 62
     0
100
AcDbPoint
 10
1433.40903
 20
662.874
 30
0.0
  0
ENDBLK
  5
1822
100
AcDbEntity
  8
0
100
AcDbBlockEnd
  0
BLOCK
  5
182F
100
AcDbEntity
  8
0
100
AcDbBlockBegin
  2
*D45
 70
     1
 10
0.0
 20
0.0
 30
0.0
  3
*D45
  1

  0
LINE
  5
1824
100
AcDbEntity
  8
0
  6
BYBLOCK
 62
     0
100
AcDbLine
 10
1444.55903
 20
702.587312
 30
0.0
 11
1457.7323
 21
702.587312
 31
0.0
  0
LINE
  5
1825
100
AcDbEntity
  8
0
  6
BYBLOCK
 62
     0
100
AcDbLine
 10
1445.78403
 20
703.462312
 30
0.0
 11
1457.7323
 21
703.462312
 31
0.0
  0
LINE
  5
1826
100
AcDbEntity
  8
0
  6
BYBLOCK
 62
     0
100
AcDbLine
 10
1456.7323
 20
700.587312
 30
0.0
 11
1456.7323
 21
698.587312
 31
0.0
  0
LINE
  5
1827
100
AcDbEntity
  8
0
  6
BYBLOCK
 62
     0
100
AcDbLine
 10
1456.7323
 20
705.462312
 30
0.0
 11
1456.7323
 21
711.176598
 31
0.0
  0
LINE
  5
1828
100
AcDbEntity
  8
0
  6
BYBLOCK
 62
     0
100
AcDbLine
 10
1456.7323
 20
702.587312
 30
0.0
 11
1456.7323
 21
703.462312
 31
0.0
  0
SOLID
  5
1829
100
AcDbEntity
  8
0
  6
BYBLOCK
 62
     0
100
AcDbTrace
 10
1456.398967
 20
700.587312
 30
0.0
 11
1457.065633
 21
700.587312
 31
0.0
 12
1456.7323
 22
702.587312
 32
0.0
 13
1456.7323
 23
702.587312
 33
0.0
  0
SOLID
  5
182A
100
AcDbEntity
  8
0
  6
BYBLOCK
 62
     0
100
AcDbTrace
 10
1456.398967
 20
705.462312
 30
0.0
 11
1457.065633
 21
705.462312
 31
0.0
 12
1456.7323
 22
703.462312
 32
0.0
 13
1456.7323
 23
703.462312
 33
0.0
  0
MTEXT
  5
182B
100
AcDbEntity
  8
0
  6
BYBLOCK
 62
     7
100
AcDbMText
 10
1453.7323
 20
709.319455
 30
0.0
 40
3.0
 41
0.0
 71
     5
 72
     1
  1
\A1;g
  7
ROMANS
 11
0.0
 21
1.0
 31
0.0
  0
POINT
  5
182C
100
AcDbEntity
  8
DEFPOINTS
  6
BYBLOCK
 62
     0
100
AcDbPoint
 10
1443.55903
 20
702.587312
 30
0.0
  0
POINT
  5
182D
100
AcDbEntity
  8
DEFPOINTS
  6
BYBLOCK
 62
     0
100
AcDbPoint
 10
1444.78403
 20
703.462312
 30
0.0
  0
POINT
  5
182E
100
AcDbEntity
  8
DEFPOINTS
  6
BYBLOCK
 62
     0
100
AcDbPoint
 10
1456.7323
 20
703.462312
 30
0.0
  0
ENDBLK
  5
1830
100
AcDbEntity
  8
0
100
AcDbBlockEnd
  0
BLOCK
  5
190D
100
AcDbEntity
  8
0
100
AcDbBlockBegin
  2
A$C7E135AB9
 70
     0
 10
0.0
 20
0.0
 30
0.0
  3
A$C7E135AB9
  1

  0
LINE
  5
1833
100
AcDbEntity
  8
0
100
AcDbLine
 10
107.630055
 20
66.920712
 30
0.0
 11
56.880055
 21
66.920712
 31
0.0
  0
LINE
  5
1834
100
AcDbEntity
  8
0
100
AcDbLine
 10
56.880055
 20
80.920712
 30
0.0
 11
107.630055
 21
80.920712
 31
0.0
  0
LINE
  5
1835
100
AcDbEntity
  8
0
100
AcDbLine
 10
107.630055
 20
14.664235
 30
0.0
 11
56.880055
 21
14.664235
 31
0.0
  0
LINE
  5
1836
100
AcDbEntity
  8
0
100
AcDbLine
 10
56.880055
 20
28.664235
 30
0.0
 11
107.630055
 21
28.664235
 31
0.0
  0
DIMENSION
  5
1837
100
AcDbEntity
  8
COTAS
100
AcDbDimension
  2
*D30
 10
56.880055
 20
1.0
 30
0.0
 11
82.255055
 21
3.5
 31
0.0
 12
-1409.253975
 22
-614.8416
 32
0.0
  1
L
  3
NIASA
100
AcDbAlignedDimension
 13
107.630055
 23
14.664235
 33
0.0
 14
56.880055
 24
14.139235
 34
0.0
100
AcDbRotatedDimension
1001
ACAD
1000
DSTYLE
1002
{
1070
    78
1070
     8
1070
   284
1070
     8
1070
   140
1040
2.5
1070
   146
1040
0.8
1070
    77
1070
     3
1070
   147
1040
1.0
1070
   287
1070
     3
1070
    42
1040
1.0
1070
    44
1040
1.0
1070
   178
1070
     7
1070
    41
1040
2.0
1002
}
  0
LINE
  5
1838
100
AcDbEntity
  8
EJES
100
AcDbLine
 10
12.955055
 20
21.664235
 30
0.0
 11
117.8354
 21
21.664235
 31
0.0
  0
LINE
  5
1839
100
AcDbEntity
  8
EJES
100
AcDbLine
 10
23.105055
 20
73.920712
 30
0.0
 11
82.873015
 21
73.920712
 31
0.0
  0
LINE
  5
183A
100
AcDbEntity
  8
EJES
100
AcDbLine
 10
16.280055
 20
83.895712
 30
0.0
 11
16.280055
 21
79.695712
 31
0.0
  0
LINE
  5
183B
100
AcDbEntity
  8
EJES
100
AcDbLine
 10
32.030055
 20
83.895712
 30
0.0
 11
32.030055
 21
79.695712
 31
0.0
  0
LINE
  5
183C
100
AcDbEntity
  8
0
  6
HIDDEN2
 62
     7
100
AcDbLine
 10
35.530055
 20
78.632732
 30
0.0
 11
35.530055
 21
87.045712
 31
0.0
  0
LINE
  5
183D
100
AcDbEntity
  8
0
  6
CONTINUOUS
 62
     7
100
AcDbLine
 10
35.530055
 20
78.632732
 30
0.0
 11
35.530055
 21
88.620712
 31
0.0
  0
LINE
  5
183E
100
AcDbEntity
  8
EJES
100
AcDbLine
 10
33.435832
 20
82.844959
 30
0.0
 11
33.435832
 21
89.670712
 31
0.0
  0
LINE
  5
183F
100
AcDbEntity
  8
0
  6
CONTINUOUS
 62
     7
100
AcDbLine
 10
39.730055
 20
60.795712
 30
0.0
 11
39.730055
 21
87.045712
 31
0.0
  0
LINE
  5
1840
100
AcDbEntity
  8
EJES
100
AcDbLine
 10
14.874279
 20
82.844959
 30
0.0
 11
14.874279
 21
89.670712
 31
0.0
  0
LINE
  5
1841
100
AcDbEntity
  8
0
  6
CONTINUOUS
 62
     7
100
AcDbLine
 10
12.780055
 20
88.620712
 30
0.0
 11
12.780055
 21
59.220712
 31
0.0
  0
LINE
  5
1842
100
AcDbEntity
  8
EJES
100
AcDbLine
 10
24.155055
 20
98.770712
 30
0.0
 11
24.155055
 21
49.070712
 31
0.0
  0
DIMENSION
  5
1843
100
AcDbEntity
  8
COTAS
100
AcDbDimension
  2
*D35
 10
4.0639
 20
81.795712
 30
0.0
 11
1.5639
 21
73.920712
 31
0.0
 12
-1409.253975
 22
-614.8416
 32
0.0
  1
a
  3
NIASA
100
AcDbAlignedDimension
 13
11.730055
 23
66.045712
 33
0.0
 14
11.730055
 24
81.795712
 34
0.0
 50
270.0
100
AcDbRotatedDimension
1001
ACAD
1000
DSTYLE
1002
{
1070
    78
1070
     8
1070
   284
1070
     8
1070
   140
1040
2.5
1070
   146
1040
0.8
1070
    77
1070
     3
1070
   147
1040
1.0
1070
   287
1070
     3
1070
    42
1040
1.0
1070
    44
1040
1.0
1070
   178
1070
     7
1070
    41
1040
2.0
1002
}
  0
DIMENSION
  5
1844
100
AcDbEntity
  8
COTAS
100
AcDbDimension
  2
*D32
 10
4.0
 20
33.914235
 30
0.0
 11
1.5
 21
21.664235
 31
0.0
 12
-1409.253975
 22
-614.8416
 32
0.0
  1
B
  3
NIASA
100
AcDbAlignedDimension
 13
12.780055
 23
9.414235
 33
0.0
 14
12.780055
 24
33.914235
 34
0.0
 50
270.0
100
AcDbRotatedDimension
1001
ACAD
1000
DSTYLE
1002
{
1070
    78
1070
     8
1070
   284
1070
     8
1070
   140
1040
2.5
1070
   146
1040
0.8
1070
    77
1070
     3
1070
   147
1040
1.0
1070
   287
1070
     3
1070
    42
1040
1.0
1070
    44
1040
1.0
1070
   178
1070
     7
1070
    41
1040
2.0
1002
}
  0
DIMENSION
  5
1845
100
AcDbEntity
  8
COTAS
100
AcDbDimension
  2
*D33
 10
17.46096
 20
10.374651
 30
0.0
 11
34.419335
 21
38.974931
 31
0.0
 12
-1409.253975
 22
-614.8416
 32
0.0
 70
   131
  1
b
  3
NIASA
100
AcDbDiametricDimension
 15
30.849151
 25
32.953819
 35
0.0
 40
0.0
1001
ACAD
1000
DSTYLE
1002
{
1070
    78
1070
     8
1070
   284
1070
     8
1070
   140
1040
2.5
1070
   146
1040
0.8
1070
    77
1070
     3
1070
   147
1040
1.0
1070
   287
1070
     3
1070
    42
1040
1.0
1070
    44
1040
1.0
1070
   178
1070
     7
1070
    41
1040
2.0
1002
}
  0
DIMENSION
  5
1846
100
AcDbEntity
  8
COTAS
100
AcDbDimension
  2
*D34
 10
28.739677
 20
12.608643
 30
0.0
 11
14.634143
 21
40.470043
 31
0.0
 12
-1409.253975
 22
-614.8416
 32
0.0
 70
   131
  1
D
  3
NIASA
100
AcDbDiametricDimension
 15
19.570434
 25
30.719827
 35
0.0
 40
0.0
1001
ACAD
1000
DSTYLE
1002
{
1070
    78
1070
     8
1070
   284
1070
     8
1070
   140
1040
2.5
1070
   146
1040
0.8
1070
    77
1070
     3
1070
   147
1040
1.0
1070
   287
1070
     3
1070
    42
1040
1.0
1070
    44
1040
1.0
1070
   178
1070
     7
1070
    41
1040
2.0
1002
}
  0
LINE
  5
1847
100
AcDbEntity
  8
0
  6
CONTINUOUS
 62
     7
100
AcDbLine
 10
39.730055
 20
33.914235
 30
0.0
 11
12.780055
 21
33.914235
 31
0.0
  0
LINE
  5
1848
100
AcDbEntity
  8
0
  6
CONTINUOUS
 62
     7
100
AcDbLine
 10
39.730055
 20
9.414235
 30
0.0
 11
12.780055
 21
9.414235
 31
0.0
  0
DIMENSION
  5
1849
100
AcDbEntity
  8
COTAS
100
AcDbDimension
  2
*D29
 10
35.530055
 20
1.0
 30
0.0
 11
46.205055
 21
3.5
 31
0.0
 12
-1409.253975
 22
-614.8416
 32
0.0
  1
L2
  3
NIASA
100
AcDbAlignedDimension
 13
56.880055
 23
14.139235
 33
0.0
 14
35.530055
 24
9.414235
 34
0.0
100
AcDbRotatedDimension
1001
ACAD
1000
DSTYLE
1002
{
1070
    78
1070
     8
1070
   284
1070
     8
1070
   140
1040
2.5
1070
   146
1040
0.8
1070
    77
1070
     3
1070
   147
1040
1.0
1070
   287
1070
     3
1070
    42
1040
1.0
1070
    44
1040
1.0
1070
   178
1070
     7
1070
    41
1040
2.0
1002
}
  0
ARC
  5
184A
100
AcDbEntity
  8
EJES
100
AcDbCircle
 10
24.155055
 20
21.664235
 30
0.0
 40
13.125
100
AcDbArc
 50
305.822869
 51
324.177131
  0
LINE
  5
184B
100
AcDbEntity
  8
EJES
100
AcDbLine
 10
31.950908
 20
13.868383
 30
0.0
 11
34.920756
 21
10.898534
 31
0.0
  0
ARC
  5
184C
100
AcDbEntity
  8
0
  6
CONTINUOUS
 62
     1
100
AcDbCircle
 10
33.435832
 20
12.383459
 30
0.0
 40
1.05
100
AcDbArc
 50
165.0
 51
105.0
  0
ARC
  5
184D
100
AcDbEntity
  8
EJES
100
AcDbCircle
 10
24.155055
 20
21.664235
 30
0.0
 40
13.125
100
AcDbArc
 50
215.822869
 51
234.177131
  0
ARC
  5
184E
100
AcDbEntity
  8
0
  6
CONTINUOUS
 62
     1
100
AcDbCircle
 10
14.874279
 20
12.383459
 30
0.0
 40
1.05
100
AcDbArc
 50
165.0
 51
105.0
  0
LINE
  5
184F
100
AcDbEntity
  8
EJES
100
AcDbLine
 10
16.359203
 20
13.868383
 30
0.0
 11
13.389355
 21
10.898534
 31
0.0
  0
CIRCLE
  5
1850
100
AcDbEntity
  8
0
100
AcDbCircle
 10
24.155055
 20
21.664235
 30
0.0
 40
10.15
  0
LINE
  5
1851
100
AcDbEntity
  8
0
  6
CONTINUOUS
 62
     7
100
AcDbLine
 10
35.530055
 20
33.914235
 30
0.0
 11
35.530055
 21
9.414235
 31
0.0
  0
LINE
  5
1852
100
AcDbEntity
  8
0
  6
CONTINUOUS
 62
     7
100
AcDbLine
 10
12.780055
 20
33.914235
 30
0.0
 11
12.780055
 21
9.414235
 31
0.0
  0
LINE
  5
1853
100
AcDbEntity
  8
EJES
100
AcDbLine
 10
24.155055
 20
34.964235
 30
0.0
 11
24.155055
 21
8.364235
 31
0.0
  0
DIMENSION
  5
1854
100
AcDbEntity
  8
COTAS
100
AcDbDimension
  2
*D28
 10
12.780055
 20
1.0
 30
0.0
 11
24.155055
 21
3.5
 31
0.0
 12
-1409.253975
 22
-614.8416
 32
0.0
  1
A
  3
NIASA
100
AcDbAlignedDimension
 13
35.530055
 23
9.414235
 33
0.0
 14
12.780055
 24
9.414235
 34
0.0
100
AcDbRotatedDimension
1001
ACAD
1000
DSTYLE
1002
{
1070
    78
1070
     8
1070
   284
1070
     8
1070
   140
1040
2.5
1070
   146
1040
0.8
1070
    77
1070
     3
1070
   147
1040
1.0
1070
   287
1070
     3
1070
    42
1040
1.0
1070
    44
1040
1.0
1070
   178
1070
     7
1070
    41
1040
2.0
1002
}
  0
CIRCLE
  5
1855
100
AcDbEntity
  8
0
  6
CONTINUOUS
 62
     7
100
AcDbCircle
 10
14.874279
 20
12.383459
 30
0.0
 40
0.875
  0
CIRCLE
  5
1856
100
AcDbEntity
  8
0
  6
CONTINUOUS
 62
     7
100
AcDbCircle
 10
33.435832
 20
12.383459
 30
0.0
 40
0.875
  0
CIRCLE
  5
1857
100
AcDbEntity
  8
0
  6
CONTINUOUS
 62
     7
100
AcDbCircle
 10
14.874279
 20
30.945012
 30
0.0
 40
0.875
  0
ARC
  5
1858
100
AcDbEntity
  8
0
  6
CONTINUOUS
 62
     1
100
AcDbCircle
 10
14.874279
 20
30.945012
 30
0.0
 40
1.05
100
AcDbArc
 50
165.0
 51
105.0
  0
ARC
  5
1859
100
AcDbEntity
  8
EJES
100
AcDbCircle
 10
24.155055
 20
21.664235
 30
0.0
 40
13.125
100
AcDbArc
 50
125.822869
 51
144.177131
  0
LINE
  5
185A
100
AcDbEntity
  8
EJES
100
AcDbLine
 10
16.359203
 20
29.460087
 30
0.0
 11
13.389355
 21
32.429936
 31
0.0
  0
CIRCLE
  5
185B
100
AcDbEntity
  8
0
  6
CONTINUOUS
 62
     7
100
AcDbCircle
 10
24.155055
 20
21.664235
 30
0.0
 40
4.2
  0
CIRCLE
  5
185C
100
AcDbEntity
  8
0
  6
CONTINUOUS
 62
     7
100
AcDbCircle
 10
24.155055
 20
21.664235
 30
0.0
 40
4.2
  0
CIRCLE
  5
185D
100
AcDbEntity
  8
0
  6
CONTINUOUS
 62
     7
100
AcDbCircle
 10
24.155055
 20
21.664235
 30
0.0
 40
1.75
  0
CIRCLE
  5
185E
100
AcDbEntity
  8
0
  6
CONTINUOUS
 62
     7
100
AcDbCircle
 10
24.155055
 20
21.664235
 30
0.0
 40
2.1
  0
ARC
  5
185F
100
AcDbEntity
  8
0
100
AcDbCircle
 10
24.155055
 20
21.664235
 30
0.0
 40
2.45
100
AcDbArc
 50
16.60155
 51
343.39845
  0
LINE
  5
1860
100
AcDbEntity
  8
0
100
AcDbLine
 10
26.780055
 20
22.364235
 30
0.0
 11
26.780055
 21
20.964235
 31
0.0
  0
LINE
  5
1861
100
AcDbEntity
  8
0
100
AcDbLine
 10
26.134954
 20
22.364235
 30
0.0
 11
26.780055
 21
22.364235
 31
0.0
  0
LINE
  5
1862
100
AcDbEntity
  8
0
100
AcDbLine
 10
26.134954
 20
20.964235
 30
0.0
 11
26.780055
 21
20.964235
 31
0.0
  0
LINE
  5
1863
100
AcDbEntity
  8
EJES
100
AcDbLine
 10
31.950908
 20
29.460087
 30
0.0
 11
34.920756
 21
32.429936
 31
0.0
  0
CIRCLE
  5
1864
100
AcDbEntity
  8
0
  6
CONTINUOUS
 62
     7
100
AcDbCircle
 10
33.435832
 20
30.945012
 30
0.0
 40
0.875
  0
ARC
  5
1865
100
AcDbEntity
  8
0
  6
CONTINUOUS
 62
     1
100
AcDbCircle
 10
33.435832
 20
30.945012
 30
0.0
 40
1.05
100
AcDbArc
 50
165.0
 51
105.0
  0
ARC
  5
1866
100
AcDbEntity
  8
EJES
100
AcDbCircle
 10
24.155055
 20
21.664235
 30
0.0
 40
13.125
100
AcDbArc
 50
35.822869
 51
68.96053
  0
LINE
  5
1867
100
AcDbEntity
  8
0
  6
CONTINUOUS
 62
     7
100
AcDbLine
 10
39.730055
 20
9.414235
 30
0.0
 11
39.730055
 21
33.914235
 31
0.0
  0
LINE
  5
1868
100
AcDbEntity
  8
0
100
AcDbLine
 10
39.730055
 20
13.789235
 30
0.0
 11
56.530055
 21
13.789235
 31
0.0
  0
LINE
  5
1869
100
AcDbEntity
  8
0
100
AcDbLine
 10
56.530055
 20
29.539235
 30
0.0
 11
39.730055
 21
29.539235
 31
0.0
  0
LINE
  5
186A
100
AcDbEntity
  8
0
100
AcDbLine
 10
56.880055
 20
14.139235
 30
0.0
 11
56.880055
 21
29.189235
 31
0.0
  0
LINE
  5
186B
100
AcDbEntity
  8
0
100
AcDbLine
 10
56.530055
 20
13.789235
 30
0.0
 11
56.530055
 21
29.539235
 31
0.0
  0
LINE
  5
186C
100
AcDbEntity
  8
0
100
AcDbLine
 10
56.530055
 20
13.789235
 30
0.0
 11
56.880055
 21
14.139235
 31
0.0
  0
LINE
  5
186D
100
AcDbEntity
  8
0
100
AcDbLine
 10
56.880055
 20
29.189235
 30
0.0
 11
56.530055
 21
29.539235
 31
0.0
  0
LINE
  5
186E
100
AcDbEntity
  8
0
  6
CONTINUOUS
 62
     7
100
AcDbLine
 10
35.530055
 20
60.795712
 30
0.0
 11
39.730055
 21
60.795712
 31
0.0
  0
LINE
  5
186F
100
AcDbEntity
  8
EJES
100
AcDbLine
 10
14.874279
 20
64.996465
 30
0.0
 11
14.874279
 21
58.170712
 31
0.0
  0
LINE
  5
1870
100
AcDbEntity
  8
TRAZOS
100
AcDbLine
 10
34.305055
 20
59.220712
 30
0.0
 11
34.305055
 21
60.095712
 31
0.0
  0
LINE
  5
1871
100
AcDbEntity
  8
EJES
100
AcDbLine
 10
33.435832
 20
64.996465
 30
0.0
 11
33.435832
 21
58.170712
 31
0.0
  0
LINE
  5
1872
100
AcDbEntity
  8
0
  6
CONTINUOUS
 62
     7
100
AcDbLine
 10
35.530055
 20
59.220712
 30
0.0
 11
35.530055
 21
69.208693
 31
0.0
  0
DIMENSION
  5
1873
100
AcDbEntity
  8
COTAS
100
AcDbDimension
  2
*D44
 10
24.155055
 20
48.0324
 30
0.0
 11
7.280055
 21
48.0324
 31
0.0
 12
-1409.253975
 22
-614.8416
 32
0.0
 70
   128
  1
H
  3
NIASA
100
AcDbAlignedDimension
 13
12.780055
 23
59.220712
 33
0.0
 14
24.155055
 24
49.070712
 34
0.0
100
AcDbRotatedDimension
1001
ACAD
1000
DSTYLE
1002
{
1070
    78
1070
     8
1070
   284
1070
     8
1070
   140
1040
2.5
1070
   146
1040
0.8
1070
    77
1070
     3
1070
   147
1040
1.0
1070
   287
1070
     3
1070
    42
1040
1.0
1070
    44
1040
1.0
1070
   178
1070
     7
1070
    41
1040
2.0
1002
}
  0
LINE
  5
1874
100
AcDbEntity
  8
0
  6
CONTINUOUS
 62
     7
100
AcDbLine
 10
12.780055
 20
59.220712
 30
0.0
 11
35.530055
 21
59.220712
 31
0.0
  0
LINE
  5
1875
100
AcDbEntity
  8
0
  6
CONTINUOUS
 62
     7
100
AcDbLine
 10
26.780055
 20
58.170712
 30
0.0
 11
26.780055
 21
51.170712
 31
0.0
  0
LINE
  5
1876
100
AcDbEntity
  8
0
  6
CONTINUOUS
 62
     7
100
AcDbLine
 10
26.255055
 20
50.470712
 30
0.0
 11
26.255055
 21
58.870712
 31
0.0
  0
LINE
  5
1877
100
AcDbEntity
  8
0
  6
CONTINUOUS
 62
     7
100
AcDbLine
 10
22.055055
 20
58.870712
 30
0.0
 11
22.055055
 21
50.470712
 31
0.0
  0
LINE
  5
1878
100
AcDbEntity
  8
0
  6
CONTINUOUS
 62
     7
100
AcDbLine
 10
22.055055
 20
50.470712
 30
0.0
 11
26.255055
 21
50.470712
 31
0.0
  0
LINE
  5
1879
100
AcDbEntity
  8
0
  6
CONTINUOUS
 62
     7
100
AcDbLine
 10
25.905055
 20
50.120712
 30
0.0
 11
22.405055
 21
50.120712
 31
0.0
  0
LINE
  5
187A
100
AcDbEntity
  8
0
  6
CONTINUOUS
 62
     7
100
AcDbLine
 10
22.055055
 20
50.470712
 30
0.0
 11
22.405055
 21
50.120712
 31
0.0
  0
LINE
  5
187B
100
AcDbEntity
  8
0
  6
CONTINUOUS
 62
     7
100
AcDbLine
 10
25.905055
 20
50.120712
 30
0.0
 11
26.255055
 21
50.470712
 31
0.0
  0
LINE
  5
187C
100
AcDbEntity
  8
0
100
AcDbLine
 10
26.255055
 20
51.170712
 30
0.0
 11
26.780055
 21
51.170712
 31
0.0
  0
LINE
  5
187D
100
AcDbEntity
  8
0
  6
CONTINUOUS
 62
     7
100
AcDbLine
 10
26.605055
 20
58.870712
 30
0.0
 11
21.705055
 21
58.870712
 31
0.0
  0
LINE
  5
187E
100
AcDbEntity
  8
0
100
AcDbLine
 10
21.705055
 20
59.220712
 30
0.0
 11
21.705055
 21
58.870712
 31
0.0
  0
LINE
  5
187F
100
AcDbEntity
  8
0
100
AcDbLine
 10
26.605055
 20
59.220712
 30
0.0
 11
26.605055
 21
58.870712
 31
0.0
  0
LINE
  5
1880
100
AcDbEntity
  8
0
100
AcDbLine
 10
26.255055
 20
58.170712
 30
0.0
 11
26.780055
 21
58.170712
 31
0.0
  0
LINE
  5
1881
100
AcDbEntity
  8
TRAZOS
100
AcDbLine
 10
14.005055
 20
60.095712
 30
0.0
 11
34.305055
 21
60.095712
 31
0.0
  0
LINE
  5
1882
100
AcDbEntity
  8
EJES
100
AcDbLine
 10
18.380055
 20
66.045712
 30
0.0
 11
11.730055
 21
66.045712
 31
0.0
  0
ARC
  5
1883
100
AcDbEntity
  8
0
 62
     1
100
AcDbCircle
 10
16.280055
 20
66.045712
 30
0.0
 40
1.05
100
AcDbArc
 50
165.0
 51
105.0
  0
CIRCLE
  5
1884
100
AcDbEntity
  8
0
  6
CONTINUOUS
 62
     7
100
AcDbCircle
 10
16.280055
 20
66.045712
 30
0.0
 40
0.875
  0
LINE
  5
1885
100
AcDbEntity
  8
TRAZOS
 62
     1
100
AcDbLine
 10
16.630055
 20
67.095712
 30
0.0
 11
16.630055
 21
64.995712
 31
0.0
  0
LINE
  5
1886
100
AcDbEntity
  8
EJES
100
AcDbLine
 10
16.280055
 20
68.145712
 30
0.0
 11
16.280055
 21
63.945712
 31
0.0
  0
LINE
  5
1887
100
AcDbEntity
  8
EJES
100
AcDbLine
 10
18.380055
 20
81.795712
 30
0.0
 11
11.730055
 21
81.795712
 31
0.0
  0
ARC
  5
1888
100
AcDbEntity
  8
0
 62
     1
100
AcDbCircle
 10
16.280055
 20
81.795712
 30
0.0
 40
1.05
100
AcDbArc
 50
165.0
 51
105.0
  0
CIRCLE
  5
1889
100
AcDbEntity
  8
0
  6
CONTINUOUS
 62
     7
100
AcDbCircle
 10
16.280055
 20
81.795712
 30
0.0
 40
0.875
  0
LINE
  5
188A
100
AcDbEntity
  8
0
  6
CONTINUOUS
 62
     7
100
AcDbLine
 10
35.530055
 20
69.208693
 30
0.0
 11
35.530055
 21
78.632732
 31
0.0
  0
LINE
  5
188B
100
AcDbEntity
  8
0
  6
HIDDEN2
 62
     7
100
AcDbLine
 10
35.530055
 20
69.208693
 30
0.0
 11
35.530055
 21
78.632732
 31
0.0
  0
ARC
  5
188C
100
AcDbEntity
  8
0
 62
     1
100
AcDbCircle
 10
32.030055
 20
66.045712
 30
0.0
 40
1.05
100
AcDbArc
 50
165.0
 51
105.0
  0
CIRCLE
  5
188D
100
AcDbEntity
  8
0
  6
CONTINUOUS
 62
     7
100
AcDbCircle
 10
32.030055
 20
66.045712
 30
0.0
 40
0.875
  0
LINE
  5
188E
100
AcDbEntity
  8
0
  6
HIDDEN2
 62
     7
100
AcDbLine
 10
35.530055
 20
60.795712
 30
0.0
 11
35.530055
 21
69.208693
 31
0.0
  0
LINE
  5
188F
100
AcDbEntity
  8
EJES
100
AcDbLine
 10
32.030055
 20
68.145712
 30
0.0
 11
32.030055
 21
63.945712
 31
0.0
  0
LINE
  5
1890
100
AcDbEntity
  8
EJES
100
AcDbLine
 10
34.130055
 20
66.045712
 30
0.0
 11
29.930055
 21
66.045712
 31
0.0
  0
LINE
  5
1891
100
AcDbEntity
  8
EJES
100
AcDbLine
 10
34.130055
 20
81.795712
 30
0.0
 11
29.930055
 21
81.795712
 31
0.0
  0
ARC
  5
1892
100
AcDbEntity
  8
0
 62
     1
100
AcDbCircle
 10
32.030055
 20
81.795712
 30
0.0
 40
1.05
100
AcDbArc
 50
165.0
 51
105.0
  0
CIRCLE
  5
1893
100
AcDbEntity
  8
0
  6
CONTINUOUS
 62
     7
100
AcDbCircle
 10
32.030055
 20
81.795712
 30
0.0
 40
0.875
  0
LINE
  5
1894
100
AcDbEntity
  8
0
100
AcDbLine
 10
39.730055
 20
66.045712
 30
0.0
 11
56.530055
 21
66.045712
 31
0.0
  0
LINE
  5
1895
100
AcDbEntity
  8
0
100
AcDbLine
 10
56.530055
 20
81.795712
 30
0.0
 11
39.730055
 21
81.795712
 31
0.0
  0
LINE
  5
1896
100
AcDbEntity
  8
0
100
AcDbLine
 10
56.530055
 20
66.045712
 30
0.0
 11
56.530055
 21
81.795712
 31
0.0
  0
LINE
  5
1897
100
AcDbEntity
  8
0
100
AcDbLine
 10
56.880055
 20
81.445712
 30
0.0
 11
56.880055
 21
66.395712
 31
0.0
  0
LINE
  5
1898
100
AcDbEntity
  8
0
100
AcDbLine
 10
56.530055
 20
66.045712
 30
0.0
 11
56.880055
 21
66.395712
 31
0.0
  0
LINE
  5
1899
100
AcDbEntity
  8
0
100
AcDbLine
 10
56.880055
 20
81.445712
 30
0.0
 11
56.530055
 21
81.795712
 31
0.0
  0
DIMENSION
  5
189A
100
AcDbEntity
  8
COTAS
100
AcDbDimension
  2
*D45
 10
47.478325
 20
88.620712
 30
0.0
 11
44.478325
 21
94.477855
 31
0.0
 12
-1409.253975
 22
-614.8416
 32
0.0
  1
g
  3
NIASA
100
AcDbAlignedDimension
 13
34.305055
 23
87.745712
 33
0.0
 14
35.530055
 24
88.620712
 34
0.0
 50
90.0
100
AcDbRotatedDimension
1001
ACAD
1000
DSTYLE
1002
{
1070
    78
1070
     8
1070
   284
1070
     8
1070
   140
1040
2.5
1070
   146
1040
0.8
1070
    77
1070
     3
1070
   147
1040
1.0
1070
   287
1070
     3
1070
    42
1040
1.0
1070
    44
1040
1.0
1070
   178
1070
     7
1070
    41
1040
2.0
1002
}
  0
LINE
  5
189B
100
AcDbEntity
  8
0
  6
CONTINUOUS
 62
     7
100
AcDbLine
 10
39.730055
 20
87.045712
 30
0.0
 11
35.530055
 21
87.045712
 31
0.0
  0
DIMENSION
  5
189C
100
AcDbEntity
  8
COTAS
100
AcDbDimension
  2
*D36
 10
16.280055
 20
103.4365
 30
0.0
 11
24.155055
 21
105.9365
 31
0.0
 12
-8.832685
 22
-158.395722
 32
0.0
  1
a
  3
NIASA
100
AcDbAlignedDimension
 13
32.030055
 23
83.895712
 33
0.0
 14
16.280055
 24
83.895712
 34
0.0
100
AcDbRotatedDimension
1001
ACAD
1000
DSTYLE
1002
{
1070
    78
1070
     8
1070
   284
1070
     8
1070
   140
1040
2.5
1070
   146
1040
0.8
1070
    77
1070
     3
1070
   147
1040
1.0
1070
   287
1070
     3
1070
    42
1040
1.0
1070
    44
1040
1.0
1070
   178
1070
     7
1070
    41
1040
2.0
1002
}
  0
LINE
  5
189D
100
AcDbEntity
  8
TRAZOS
100
AcDbLine
 10
34.305055
 20
87.745712
 30
0.0
 11
14.005055
 21
87.745712
 31
0.0
  0
LINE
  5
189E
100
AcDbEntity
  8
0
  6
CONTINUOUS
 62
     7
100
AcDbLine
 10
35.530055
 20
88.620712
 30
0.0
 11
12.780055
 21
88.620712
 31
0.0
  0
LINE
  5
189F
100
AcDbEntity
  8
TRAZOS
100
AcDbLine
 10
14.005055
 20
87.745712
 30
0.0
 11
14.005055
 21
88.620712
 31
0.0
  0
LINE
  5
18A0
100
AcDbEntity
  8
0
  6
CONTINUOUS
 62
     7
100
AcDbLine
 10
22.055055
 20
97.370712
 30
0.0
 11
22.055055
 21
88.970712
 31
0.0
  0
LINE
  5
18A1
100
AcDbEntity
  8
0
  6
CONTINUOUS
 62
     7
100
AcDbLine
 10
26.255055
 20
88.970712
 30
0.0
 11
26.255055
 21
97.370712
 31
0.0
  0
LINE
  5
18A2
100
AcDbEntity
  8
0
  6
CONTINUOUS
 62
     7
100
AcDbLine
 10
26.780055
 20
89.670712
 30
0.0
 11
26.780055
 21
96.670712
 31
0.0
  0
LINE
  5
18A3
100
AcDbEntity
  8
0
100
AcDbLine
 10
21.705055
 20
88.620712
 30
0.0
 11
21.705055
 21
88.970712
 31
0.0
  0
LINE
  5
18A4
100
AcDbEntity
  8
0
100
AcDbLine
 10
26.605055
 20
88.620712
 30
0.0
 11
26.605055
 21
88.970712
 31
0.0
  0
LINE
  5
18A5
100
AcDbEntity
  8
0
  6
CONTINUOUS
 62
     7
100
AcDbLine
 10
26.605055
 20
88.970712
 30
0.0
 11
21.705055
 21
88.970712
 31
0.0
  0
LINE
  5
18A6
100
AcDbEntity
  8
0
100
AcDbLine
 10
26.255055
 20
89.670712
 30
0.0
 11
26.780055
 21
89.670712
 31
0.0
  0
LINE
  5
18A7
100
AcDbEntity
  8
TRAZOS
100
AcDbLine
 10
34.305055
 20
87.745712
 30
0.0
 11
34.305055
 21
88.620712
 31
0.0
  0
LINE
  5
18A8
100
AcDbEntity
  8
0
  6
CONTINUOUS
 62
     7
100
AcDbLine
 10
26.255055
 20
97.370712
 30
0.0
 11
22.055055
 21
97.370712
 31
0.0
  0
LINE
  5
18A9
100
AcDbEntity
  8
0
  6
CONTINUOUS
 62
     7
100
AcDbLine
 10
22.405055
 20
97.720712
 30
0.0
 11
25.905055
 21
97.720712
 31
0.0
  0
LINE
  5
18AA
100
AcDbEntity
  8
0
  6
CONTINUOUS
 62
     7
100
AcDbLine
 10
22.405055
 20
97.720712
 30
0.0
 11
22.055055
 21
97.370712
 31
0.0
  0
LINE
  5
18AB
100
AcDbEntity
  8
0
  6
CONTINUOUS
 62
     7
100
AcDbLine
 10
26.255055
 20
97.370712
 30
0.0
 11
25.905055
 21
97.720712
 31
0.0
  0
LINE
  5
18AC
100
AcDbEntity
  8
0
100
AcDbLine
 10
26.255055
 20
96.670712
 30
0.0
 11
26.780055
 21
96.670712
 31
0.0
  0
DIMENSION
  5
18AD
100
AcDbEntity
  8
COTAS
100
AcDbDimension
  2
*D40
 10
114.980055
 20
90.808278
 30
0.0
 11
122.194341
 21
93.308278
 31
0.0
 12
-8.832685
 22
-158.395722
 32
0.0
  1
L4
  3
NIASA
100
AcDbAlignedDimension
 13
110.4112
 23
79.2364
 33
0.0
 14
114.980055
 24
79.870712
 34
0.0
100
AcDbRotatedDimension
1001
ACAD
1000
DSTYLE
1002
{
1070
    78
1070
     8
1070
   284
1070
     8
1070
   140
1040
2.5
1070
   146
1040
0.8
1070
    77
1070
     3
1070
   147
1040
1.0
1070
   287
1070
     3
1070
    42
1040
1.0
1070
    44
1040
1.0
1070
   178
1070
     7
1070
    41
1040
2.0
1002
}
  0
DIMENSION
  5
18AE
100
AcDbEntity
  8
COTAS
100
AcDbDimension
  2
*D38
 10
122.1407
 20
78.8305
 30
0.0
 11
122.1407
 21
83.759072
 31
0.0
 12
-8.832685
 22
-158.395722
 32
0.0
 70
   128
  1
d1
  3
NIASA
100
AcDbAlignedDimension
 13
114.980055
 23
69.010925
 33
0.0
 14
114.89838
 24
78.8305
 34
0.0
 50
270.0
100
AcDbRotatedDimension
1001
ACAD
1000
DSTYLE
1002
{
1070
    78
1070
     8
1070
   284
1070
     8
1070
   140
1040
2.5
1070
   146
1040
0.8
1070
    77
1070
     3
1070
   147
1040
1.0
1070
   287
1070
     3
1070
    42
1040
1.0
1070
    44
1040
1.0
1070
   178
1070
     7
1070
    41
1040
2.0
1002
}
  0
DIMENSION
  5
18AF
100
AcDbEntity
  8
COTAS
100
AcDbDimension
  2
*D26
 10
141.938625
 20
88.620712
 30
0.0
 11
139.438625
 21
73.920712
 31
0.0
 12
-1409.253975
 22
-614.8416
 32
0.0
  1
C
  3
NIASA
100
AcDbAlignedDimension
 13
155.550063
 23
59.220712
 33
0.0
 14
155.550063
 24
88.620712
 34
0.0
 50
90.0
100
AcDbRotatedDimension
1001
ACAD
1000
DSTYLE
1002
{
1070
    78
1070
     8
1070
   284
1070
     8
1070
   140
1040
2.5
1070
   146
1040
0.8
1070
    77
1070
     3
1070
   147
1040
1.0
1070
   287
1070
     3
1070
    42
1040
1.0
1070
    44
1040
1.0
1070
   178
1070
     7
1070
    41
1040
2.0
1002
}
  0
DIMENSION
  5
18B0
100
AcDbEntity
  8
COTAS
100
AcDbDimension
  2
*D24
 10
187.373125
 20
88.970712
 30
0.0
 11
184.873125
 21
73.920712
 31
0.0
 12
-1409.253975
 22
-614.8416
 32
0.0
  1
F
  3
NIASA
100
AcDbAlignedDimension
 13
170.250063
 23
58.870712
 33
0.0
 14
170.250063
 24
88.970712
 34
0.0
 50
90.0
100
AcDbRotatedDimension
1001
ACAD
1000
DSTYLE
1002
{
1070
    78
1070
     8
1070
   284
1070
     8
1070
   140
1040
2.5
1070
   146
1040
0.8
1070
    77
1070
     3
1070
   147
1040
1.0
1070
   287
1070
     3
1070
    42
1040
1.0
1070
    44
1040
1.0
1070
   178
1070
     7
1070
    41
1040
2.0
1002
}
  0
LINE
  5
18B1
100
AcDbEntity
  8
EJES
100
AcDbLine
 10
175.675063
 20
78.795712
 30
0.0
 11
175.675063
 21
84.795712
 31
0.0
  0
LINE
  5
18B2
100
AcDbEntity
  8
EJES
100
AcDbLine
 10
159.925063
 20
78.795712
 30
0.0
 11
159.925063
 21
84.795712
 31
0.0
  0
LINE
  5
18B3
100
AcDbEntity
  8
EJES
100
AcDbLine
 10
158.519813
 20
82.844959
 30
0.0
 11
158.519813
 21
89.670712
 31
0.0
  0
LINE
  5
18B4
100
AcDbEntity
  8
EJES
100
AcDbLine
 10
177.080313
 20
82.844959
 30
0.0
 11
177.080313
 21
89.670712
 31
0.0
  0
LINE
  5
18B5
100
AcDbEntity
  8
0
  6
CONTINUOUS
 62
     7
100
AcDbLine
 10
155.550063
 20
78.632732
 30
0.0
 11
155.550063
 21
88.620712
 31
0.0
  0
LINE
  5
18B6
100
AcDbEntity
  8
0
  6
CONTINUOUS
 62
     7
100
AcDbLine
 10
180.050063
 20
78.632732
 30
0.0
 11
180.050063
 21
88.620712
 31
0.0
  0
LINE
  5
18B7
100
AcDbEntity
  8
EJES
100
AcDbLine
 10
167.800063
 20
98.770712
 30
0.0
 11
167.800063
 21
49.070712
 31
0.0
  0
DIMENSION
  5
18B8
100
AcDbEntity
  8
COTAS
100
AcDbDimension
  2
*D31
 10
107.630055
 20
1.0
 30
0.0
 11
126.974425
 21
1.0
 31
0.0
 12
-8.832685
 22
-158.395722
 32
0.0
 70
   128
  1
L3 mín
  3
NIASA
100
AcDbAlignedDimension
 13
114.980055
 23
15.714235
 33
0.0
 14
107.630055
 24
14.664235
 34
0.0
100
AcDbRotatedDimension
1001
ACAD
1000
DSTYLE
1002
{
1070
    78
1070
     8
1070
   284
1070
     8
1070
   140
1040
2.5
1070
   146
1040
0.8
1070
    77
1070
     3
1070
   147
1040
1.0
1070
   287
1070
     3
1070
    42
1040
1.0
1070
    44
1040
1.0
1070
   178
1070
     7
1070
    41
1040
2.0
1002
}
  0
LINE
  5
18B9
100
AcDbEntity
  8
0
100
AcDbLine
 10
107.630055
 20
27.264235
 30
0.0
 11
107.630055
 21
16.064235
 31
0.0
  0
LINE
  5
18BA
100
AcDbEntity
  8
0
100
AcDbLine
 10
114.980055
 20
27.614235
 30
0.0
 11
114.980055
 21
15.714235
 31
0.0
  0
LINE
  5
18BB
100
AcDbEntity
  8
0
100
AcDbLine
 10
114.980055
 20
15.714235
 30
0.0
 11
107.630055
 21
15.714235
 31
0.0
  0
LINE
  5
18BC
100
AcDbEntity
  8
0
100
AcDbLine
 10
107.630055
 20
14.664235
 30
0.0
 11
107.630055
 21
16.064235
 31
0.0
  0
LINE
  5
18BD
100
AcDbEntity
  8
0
100
AcDbLine
 10
114.980055
 20
27.614235
 30
0.0
 11
107.630055
 21
27.614235
 31
0.0
  0
LINE
  5
18BE
100
AcDbEntity
  8
0
100
AcDbLine
 10
107.630055
 20
27.264235
 30
0.0
 11
107.630055
 21
28.664235
 31
0.0
  0
LINE
  5
18BF
100
AcDbEntity
  8
EJES
100
AcDbLine
 10
88.940115
 20
73.920712
 30
0.0
 11
117.1061
 21
73.920712
 31
0.0
  0
DIMENSION
  5
18C0
100
AcDbEntity
  8
COTAS
100
AcDbDimension
  2
*D37
 10
87.963
 20
80.920712
 30
0.0
 11
87.963
 21
73.920712
 31
0.0
 12
-8.832685
 22
-158.395722
 32
0.0
 70
   128
  1
%%CD3
  3
NIASA
100
AcDbAlignedDimension
 13
82.255055
 23
66.920712
 33
0.0
 14
82.255055
 24
80.920712
 34
0.0
 50
270.0
100
AcDbRotatedDimension
1001
ACAD
1000
DSTYLE
1002
{
1070
    78
1070
     8
1070
   284
1070
     8
1070
   140
1040
2.5
1070
   146
1040
0.8
1070
    77
1070
     3
1070
   147
1040
1.0
1070
   287
1070
     3
1070
    42
1040
1.0
1070
    44
1040
1.0
1070
   178
1070
     7
1070
    41
1040
2.0
1002
}
  0
DIMENSION
  5
18C1
100
AcDbEntity
  8
COTAS
100
AcDbDimension
  2
*D39
 10
128.7004
 20
79.870712
 30
0.0
 11
126.2004
 21
73.920712
 31
0.0
 12
-8.832685
 22
-158.395722
 32
0.0
  1
%%Cd2
  3
NIASA
100
AcDbAlignedDimension
 13
114.980055
 23
67.970712
 33
0.0
 14
114.980055
 24
79.870712
 34
0.0
 50
270.0
100
AcDbRotatedDimension
1001
ACAD
1000
DSTYLE
1002
{
1070
    78
1070
     8
1070
   284
1070
     8
1070
   140
1040
2.5
1070
   146
1040
0.8
1070
    77
1070
     3
1070
   147
1040
1.0
1070
   287
1070
     3
1070
    42
1040
1.0
1070
    44
1040
1.0
1070
   178
1070
     7
1070
    41
1040
2.0
1002
}
  0
LINE
  5
18C2
102
{ACAD_REACTORS
330
18C7
102
}
100
AcDbEntity
  8
0
100
AcDbLine
 10
114.980055
 20
79.870712
 30
0.0
 11
114.980055
 21
67.970712
 31
0.0
  0
LINE
  5
18C3
102
{ACAD_REACTORS
330
18C7
102
}
100
AcDbEntity
  8
0
100
AcDbLine
 10
110.8579
 20
79.2364
 30
0.0
 11
110.8579
 21
68.605025
 31
0.0
  0
LINE
  5
18C4
102
{ACAD_REACTORS
330
18C7
102
}
100
AcDbEntity
  8
0
100
AcDbLine
 10
110.4112
 20
79.2364
 30
0.0
 11
110.4112
 21
68.605025
 31
0.0
  0
LINE
  5
18C5
100
AcDbEntity
  8
RAYADO
100
AcDbLine
 10
108.4849
 20
72.5929
 30
0.0
 11
108.5234
 21
70.361
 31
0.0
  0
LINE
  5
18C6
100
AcDbEntity
  8
0
100
AcDbLine
 10
107.630055
 20
79.520712
 30
0.0
 11
107.630055
 21
68.320712
 31
0.0
  0
HATCH
  5
18C7
100
AcDbEntity
  8
RAYADO
100
AcDbHatch
 10
0.0
 20
0.0
 30
0.0
210
0.0
220
0.0
230
1.0
  2
_U
 70
     0
 71
     1
 91
        2
 92
        7
 72
     0
 73
     1
 93
        9
 10
109.3375006015264
 20
79.8707124083636
 10
109.2165004878143
 20
79.25000025994046
 10
109.1085574190586
 20
78.83050025994021
 10
110.4112004878145
 20
78.83050025994032
 10
110.4112004878145
 20
79.23640025994044
 10
110.8579004878142
 20
79.23640025994044
 10
110.8579004878142
 20
78.83050025994035
 10
114.9800554841553
 20
78.83050025994044
 10
114.9800554841553
 20
79.87071240836363
 97
        9
330
18CF
330
18C2
330
18D4
330
18C3
330
18D5
330
18C4
330
18D6
330
18D1
330
18D7
 92
        7
 72
     0
 73
     1
 93
        9
 10
110.857900487814
 20
69.01092455678687
 10
110.857900487814
 20
68.60502455678693
 10
110.4112004878145
 20
68.60502455678679
 10
110.4112004878145
 20
69.01092455678679
 10
108.9057509296584
 20
69.01092455678693
 10
109.1010004878142
 20
68.32150025994025
 10
109.3243798048601
 20
67.97071240836348
 10
114.9800554841553
 20
67.97071240836345
 10
114.9800554841554
 20
69.01092455678713
 97
        9
330
18CA
330
18C2
330
18C8
330
18CB
330
18CC
330
18CD
330
18C4
330
18CE
330
18C3
 75
     0
 76
     0
 52
45.0
 41
0.5
 77
     0
 78
     1
 53
135.0
 43
1592.7519
 44
-614.8416
 45
0.3535533905932737
 46
0.3535533905932738
 79
     0
 47
0.038481
 98
        2
 10
111.4498
 20
79.4424
 10
111.8734
 20
68.5909
  0
LINE
  5
18C8
102
{ACAD_REACTORS
330
18C7
102
}
100
AcDbEntity
  8
0
100
AcDbLine
 10
114.980055
 20
67.970712
 30
0.0
 11
107.630055
 21
67.970712
 31
0.0
  0
LINE
  5
18C9
100
AcDbEntity
  8
0
100
AcDbLine
 10
107.630055
 20
66.920712
 30
0.0
 11
107.630055
 21
68.320712
 31
0.0
  0
LINE
  5
18CA
102
{ACAD_REACTORS
330
18C7
102
}
100
AcDbEntity
  8
0
100
AcDbLine
 10
114.980055
 20
69.010925
 30
0.0
 11
110.8579
 21
69.010925
 31
0.0
  0
LINE
  5
18CB
102
{ACAD_REACTORS
330
18C7
102
}
100
AcDbEntity
  8
RAYADO
100
AcDbLine
 10
109.101
 20
68.3215
 30
0.0
 11
109.32438
 21
67.970712
 31
0.0
  0
LINE
  5
18CC
102
{ACAD_REACTORS
330
18C7
102
}
100
AcDbEntity
  8
RAYADO
100
AcDbLine
 10
108.5234
 20
70.361
 30
0.0
 11
109.101
 21
68.3215
 31
0.0
  0
LINE
  5
18CD
102
{ACAD_REACTORS
330
18C7
102
}
100
AcDbEntity
  8
0
100
AcDbLine
 10
110.4112
 20
69.010925
 30
0.0
 11
108.905751
 21
69.010925
 31
0.0
  0
LINE
  5
18CE
102
{ACAD_REACTORS
330
18C7
102
}
100
AcDbEntity
  8
0
100
AcDbLine
 10
110.8579
 20
68.605025
 30
0.0
 11
110.4112
 21
68.605025
 31
0.0
  0
LINE
  5
18CF
102
{ACAD_REACTORS
330
18C7
102
}
100
AcDbEntity
  8
0
100
AcDbLine
 10
114.980055
 20
79.870712
 30
0.0
 11
107.630055
 21
79.870712
 31
0.0
  0
LINE
  5
18D0
100
AcDbEntity
  8
0
100
AcDbLine
 10
107.630055
 20
79.520712
 30
0.0
 11
107.630055
 21
80.920712
 31
0.0
  0
LINE
  5
18D1
102
{ACAD_REACTORS
330
18C7
102
}
100
AcDbEntity
  8
RAYADO
100
AcDbLine
 10
109.2165
 20
79.25
 30
0.0
 11
108.5234
 21
76.5564
 31
0.0
  0
LINE
  5
18D2
100
AcDbEntity
  8
RAYADO
100
AcDbLine
 10
108.2924
 20
74.9787
 30
0.0
 11
108.4849
 21
72.5929
 31
0.0
  0
LINE
  5
18D3
100
AcDbEntity
  8
RAYADO
100
AcDbLine
 10
108.5234
 20
76.5564
 30
0.0
 11
108.2924
 21
74.9787
 31
0.0
  0
LINE
  5
18D4
102
{ACAD_REACTORS
330
18C7
102
}
100
AcDbEntity
  8
0
100
AcDbLine
 10
114.980055
 20
78.8305
 30
0.0
 11
110.8579
 21
78.8305
 31
0.0
  0
LINE
  5
18D5
102
{ACAD_REACTORS
330
18C7
102
}
100
AcDbEntity
  8
0
100
AcDbLine
 10
110.8579
 20
79.2364
 30
0.0
 11
110.4112
 21
79.2364
 31
0.0
  0
LINE
  5
18D6
102
{ACAD_REACTORS
330
18C7
102
}
100
AcDbEntity
  8
0
100
AcDbLine
 10
110.4112
 20
78.8305
 30
0.0
 11
109.108557
 21
78.8305
 31
0.0
  0
LINE
  5
18D7
102
{ACAD_REACTORS
330
18C7
102
}
100
AcDbEntity
  8
RAYADO
100
AcDbLine
 10
109.337501
 20
79.870712
 30
0.0
 11
109.2165
 21
79.25
 31
0.0
  0
DIMENSION
  5
18D8
100
AcDbEntity
  8
COTAS
100
AcDbDimension
  2
*D43
 10
177.080313
 20
40.556
 30
0.0
 11
167.800063
 21
43.056
 31
0.0
 12
-1409.253975
 22
-614.8416
 32
0.0
  1
a
  3
NIASA
100
AcDbAlignedDimension
 13
158.519813
 23
58.170712
 33
0.0
 14
177.080313
 24
58.170712
 34
0.0
100
AcDbRotatedDimension
1001
ACAD
1000
DSTYLE
1002
{
1070
    78
1070
     8
1070
   284
1070
     8
1070
   140
1040
2.5
1070
   146
1040
0.8
1070
    77
1070
     3
1070
   147
1040
1.0
1070
   287
1070
     3
1070
    42
1040
1.0
1070
    44
1040
1.0
1070
   178
1070
     7
1070
    41
1040
2.0
1002
}
  0
LINE
  5
18D9
100
AcDbEntity
  8
EJES
100
AcDbLine
 10
154.500063
 20
73.920712
 30
0.0
 11
181.100063
 21
73.920712
 31
0.0
  0
LINE
  5
18DA
100
AcDbEntity
  8
0
  6
CONTINUOUS
 62
     7
100
AcDbLine
 10
155.550063
 20
59.220712
 30
0.0
 11
180.050063
 21
59.220712
 31
0.0
  0
DIMENSION
  5
18DB
100
AcDbEntity
  8
COTAS
100
AcDbDimension
  2
*D42
 10
160.254854
 20
67.042576
 30
0.0
 11
155.078125
 21
51.3948
 31
0.0
 12
-1409.253975
 22
-614.8416
 32
0.0
 70
   131
  1
i
  3
NIASA
100
AcDbDiametricDimension
 15
159.595272
 25
65.048848
 35
0.0
 40
0.0
1001
ACAD
1000
DSTYLE
1002
{
1070
    78
1070
     8
1070
   284
1070
     8
1070
   140
1040
2.5
1070
   146
1040
0.8
1070
    77
1070
     3
1070
   147
1040
1.0
1070
   287
1070
     3
1070
    42
1040
1.0
1070
    44
1040
1.0
1070
   178
1070
     7
1070
    41
1040
2.0
1002
}
  0
LINE
  5
18DC
100
AcDbEntity
  8
EJES
100
AcDbLine
 10
158.519813
 20
64.996465
 30
0.0
 11
158.519813
 21
58.170712
 31
0.0
  0
LINE
  5
18DD
100
AcDbEntity
  8
0
  6
CONTINUOUS
 62
     7
100
AcDbLine
 10
155.550063
 20
59.220712
 30
0.0
 11
155.550063
 21
78.632732
 31
0.0
  0
DIMENSION
  5
18DE
100
AcDbEntity
  8
COTAS
100
AcDbDimension
  2
*D41
 10
149.710525
 20
81.795712
 30
0.0
 11
147.210525
 21
73.920712
 31
0.0
 12
-1409.253975
 22
-614.8416
 32
0.0
  1
a
  3
NIASA
100
AcDbAlignedDimension
 13
153.459155
 23
66.045712
 33
0.0
 14
153.882375
 24
81.795712
 34
0.0
 50
90.0
100
AcDbRotatedDimension
1001
ACAD
1000
DSTYLE
1002
{
1070
    78
1070
     8
1070
   284
1070
     8
1070
   140
1040
2.5
1070
   146
1040
0.8
1070
    77
1070
     3
1070
   147
1040
1.0
1070
   287
1070
     3
1070
    42
1040
1.0
1070
    44
1040
1.0
1070
   178
1070
     7
1070
    41
1040
2.0
1002
}
  0
LINE
  5
18DF
100
AcDbEntity
  8
EJES
100
AcDbLine
 10
162.925063
 20
66.045712
 30
0.0
 11
153.459155
 21
66.045712
 31
0.0
  0
LINE
  5
18E0
100
AcDbEntity
  8
EJES
100
AcDbLine
 10
159.925063
 20
63.045712
 30
0.0
 11
159.925063
 21
69.045712
 31
0.0
  0
CIRCLE
  5
18E1
100
AcDbEntity
  8
0
 62
     7
100
AcDbCircle
 10
159.925063
 20
66.045712
 30
0.0
 40
0.875
  0
ARC
  5
18E2
100
AcDbEntity
  8
0
 62
     1
100
AcDbCircle
 10
159.925063
 20
66.045712
 30
0.0
 40
1.05
100
AcDbArc
 50
75.0
 51
15.0
  0
LINE
  5
18E3
100
AcDbEntity
  8
EJES
100
AcDbLine
 10
162.925063
 20
81.795712
 30
0.0
 11
153.882375
 21
81.795712
 31
0.0
  0
CIRCLE
  5
18E4
100
AcDbEntity
  8
0
100
AcDbCircle
 10
159.925063
 20
81.795712
 30
0.0
 40
0.875
  0
ARC
  5
18E5
100
AcDbEntity
  8
0
 62
     1
100
AcDbCircle
 10
159.925063
 20
81.795712
 30
0.0
 40
1.05
100
AcDbArc
 50
75.0
 51
15.0
  0
LINE
  5
18E6
100
AcDbEntity
  8
EJES
100
AcDbLine
 10
177.080313
 20
64.996465
 30
0.0
 11
177.080313
 21
58.170712
 31
0.0
  0
LINE
  5
18E7
100
AcDbEntity
  8
0
  6
CONTINUOUS
 62
     7
100
AcDbLine
 10
180.050063
 20
59.220712
 30
0.0
 11
180.050063
 21
78.632732
 31
0.0
  0
DIMENSION
  5
18E8
100
AcDbEntity
  8
COTAS
100
AcDbDimension
  2
*D23
 10
187.373125
 20
50.120712
 30
0.0
 11
184.873125
 21
54.495712
 31
0.0
 12
-1409.253975
 22
-614.8416
 32
0.0
  1
G
  3
NIASA
100
AcDbAlignedDimension
 13
170.250063
 23
58.870712
 33
0.0
 14
169.550063
 24
50.120712
 34
0.0
 50
90.0
100
AcDbRotatedDimension
1001
ACAD
1000
DSTYLE
1002
{
1070
    78
1070
     8
1070
   284
1070
     8
1070
   140
1040
2.5
1070
   146
1040
0.8
1070
    77
1070
     3
1070
   147
1040
1.0
1070
   287
1070
     3
1070
    42
1040
1.0
1070
    44
1040
1.0
1070
   178
1070
     7
1070
    41
1040
2.0
1002
}
  0
LINE
  5
18E9
100
AcDbEntity
  8
0
  6
CONTINUOUS
 62
     7
100
AcDbLine
 10
165.700063
 20
50.470712
 30
0.0
 11
165.700063
 21
58.870712
 31
0.0
  0
LINE
  5
18EA
100
AcDbEntity
  8
0
  6
CONTINUOUS
 62
     7
100
AcDbLine
 10
169.900063
 20
58.870712
 30
0.0
 11
169.900063
 21
50.470712
 31
0.0
  0
LINE
  5
18EB
100
AcDbEntity
  8
0
100
AcDbLine
 10
168.500063
 20
51.870712
 30
0.0
 11
168.500063
 21
57.470712
 31
0.0
  0
LINE
  5
18EC
100
AcDbEntity
  8
0
100
AcDbLine
 10
167.100063
 20
51.870712
 30
0.0
 11
167.100063
 21
57.470712
 31
0.0
  0
ARC
  5
18ED
100
AcDbEntity
  8
0
100
AcDbCircle
 10
167.800063
 20
51.870712
 30
0.0
 40
0.7
100
AcDbArc
 50
180.0
 51
0.0
  0
LINE
  5
18EE
100
AcDbEntity
  8
0
  6
CONTINUOUS
 62
     7
100
AcDbLine
 10
166.050063
 20
50.120712
 30
0.0
 11
169.550063
 21
50.120712
 31
0.0
  0
LINE
  5
18EF
100
AcDbEntity
  8
0
  6
CONTINUOUS
 62
     7
100
AcDbLine
 10
169.900063
 20
50.470712
 30
0.0
 11
165.700063
 21
50.470712
 31
0.0
  0
LINE
  5
18F0
100
AcDbEntity
  8
0
  6
CONTINUOUS
 62
     7
100
AcDbLine
 10
166.050063
 20
50.120712
 30
0.0
 11
165.700063
 21
50.470712
 31
0.0
  0
LINE
  5
18F1
100
AcDbEntity
  8
0
  6
CONTINUOUS
 62
     7
100
AcDbLine
 10
169.900063
 20
50.470712
 30
0.0
 11
169.550063
 21
50.120712
 31
0.0
  0
ARC
  5
18F2
100
AcDbEntity
  8
0
100
AcDbCircle
 10
167.800063
 20
57.470712
 30
0.0
 40
0.7
100
AcDbArc
 50
0.0
 51
180.0
  0
LINE
  5
18F3
100
AcDbEntity
  8
0
  6
CONTINUOUS
 62
     7
100
AcDbLine
 10
165.350063
 20
58.870712
 30
0.0
 11
170.250063
 21
58.870712
 31
0.0
  0
LINE
  5
18F4
100
AcDbEntity
  8
0
100
AcDbLine
 10
165.350063
 20
59.220712
 30
0.0
 11
165.350063
 21
58.870712
 31
0.0
  0
LINE
  5
18F5
100
AcDbEntity
  8
0
100
AcDbLine
 10
170.250063
 20
59.220712
 30
0.0
 11
170.250063
 21
58.870712
 31
0.0
  0
LINE
  5
18F6
100
AcDbEntity
  8
EJES
100
AcDbLine
 10
172.675063
 20
81.795712
 30
0.0
 11
181.100063
 21
81.795712
 31
0.0
  0
LINE
  5
18F7
100
AcDbEntity
  8
EJES
100
AcDbLine
 10
172.675063
 20
66.045712
 30
0.0
 11
181.100063
 21
66.045712
 31
0.0
  0
LINE
  5
18F8
100
AcDbEntity
  8
EJES
100
AcDbLine
 10
175.675063
 20
63.045712
 30
0.0
 11
175.675063
 21
69.045712
 31
0.0
  0
CIRCLE
  5
18F9
100
AcDbEntity
  8
0
 62
     7
100
AcDbCircle
 10
175.675063
 20
66.045712
 30
0.0
 40
0.875
  0
ARC
  5
18FA
100
AcDbEntity
  8
0
 62
     1
100
AcDbCircle
 10
175.675063
 20
66.045712
 30
0.0
 40
1.05
100
AcDbArc
 50
75.0
 51
15.0
  0
CIRCLE
  5
18FB
100
AcDbEntity
  8
0
100
AcDbCircle
 10
175.675063
 20
81.795712
 30
0.0
 40
0.875
  0
ARC
  5
18FC
100
AcDbEntity
  8
0
 62
     1
100
AcDbCircle
 10
175.675063
 20
81.795712
 30
0.0
 40
1.05
100
AcDbArc
 50
75.0
 51
15.0
  0
DIMENSION
  5
18FD
100
AcDbEntity
  8
COTAS
100
AcDbDimension
  2
*D27
 10
169.900063
 20
103.4365
 30
0.0
 11
179.471491
 21
105.9365
 31
0.0
 12
-8.832685
 22
-158.395722
 32
0.0
  1
%%Cdf8
  3
NIASA
100
AcDbAlignedDimension
 13
165.700063
 23
97.370712
 33
0.0
 14
169.900063
 24
97.370712
 34
0.0
100
AcDbRotatedDimension
1001
ACAD
1000
DSTYLE
1002
{
1070
    78
1070
     8
1070
   284
1070
     8
1070
   140
1040
2.5
1070
   146
1040
0.8
1070
    77
1070
     3
1070
   147
1040
1.0
1070
   287
1070
     3
1070
    42
1040
1.0
1070
    44
1040
1.0
1070
   178
1070
     7
1070
    41
1040
2.0
1002
}
  0
LINE
  5
18FE
100
AcDbEntity
  8
0
  6
CONTINUOUS
 62
     7
100
AcDbLine
 10
155.550063
 20
88.620712
 30
0.0
 11
180.050063
 21
88.620712
 31
0.0
  0
DIMENSION
  5
18FF
100
AcDbEntity
  8
COTAS
100
AcDbDimension
  2
*D25
 10
187.373125
 20
97.720712
 30
0.0
 11
184.873125
 21
93.345712
 31
0.0
 12
-1409.253975
 22
-614.8416
 32
0.0
  1
G
  3
NIASA
100
AcDbAlignedDimension
 13
170.250063
 23
88.970712
 33
0.0
 14
169.550063
 24
97.720712
 34
0.0
 50
90.0
100
AcDbRotatedDimension
1001
ACAD
1000
DSTYLE
1002
{
1070
    78
1070
     8
1070
   284
1070
     8
1070
   140
1040
2.5
1070
   146
1040
0.8
1070
    77
1070
     3
1070
   147
1040
1.0
1070
   287
1070
     3
1070
    42
1040
1.0
1070
    44
1040
1.0
1070
   178
1070
     7
1070
    41
1040
2.0
1002
}
  0
LINE
  5
1900
100
AcDbEntity
  8
0
100
AcDbLine
 10
167.100063
 20
95.970712
 30
0.0
 11
167.100063
 21
90.370712
 31
0.0
  0
LINE
  5
1901
100
AcDbEntity
  8
0
100
AcDbLine
 10
168.500063
 20
95.970712
 30
0.0
 11
168.500063
 21
90.370712
 31
0.0
  0
LINE
  5
1902
100
AcDbEntity
  8
0
  6
CONTINUOUS
 62
     7
100
AcDbLine
 10
165.700063
 20
88.970712
 30
0.0
 11
165.700063
 21
97.370712
 31
0.0
  0
LINE
  5
1903
100
AcDbEntity
  8
0
  6
CONTINUOUS
 62
     7
100
AcDbLine
 10
169.900063
 20
97.370712
 30
0.0
 11
169.900063
 21
88.970712
 31
0.0
  0
LINE
  5
1904
100
AcDbEntity
  8
0
100
AcDbLine
 10
165.350063
 20
88.620712
 30
0.0
 11
165.350063
 21
88.970712
 31
0.0
  0
LINE
  5
1905
100
AcDbEntity
  8
0
100
AcDbLine
 10
170.250063
 20
88.620712
 30
0.0
 11
170.250063
 21
88.970712
 31
0.0
  0
LINE
  5
1906
100
AcDbEntity
  8
0
  6
CONTINUOUS
 62
     7
100
AcDbLine
 10
165.350063
 20
88.970712
 30
0.0
 11
170.250063
 21
88.970712
 31
0.0
  0
ARC
  5
1907
100
AcDbEntity
  8
0
100
AcDbCircle
 10
167.800063
 20
90.370712
 30
0.0
 40
0.7
100
AcDbArc
 50
180.0
 51
0.0
  0
ARC
  5
1908
100
AcDbEntity
  8
0
100
AcDbCircle
 10
167.800063
 20
95.970712
 30
0.0
 40
0.7
100
AcDbArc
 50
0.0
 51
180.0
  0
LINE
  5
1909
100
AcDbEntity
  8
0
  6
CONTINUOUS
 62
     7
100
AcDbLine
 10
169.550063
 20
97.720712
 30
0.0
 11
166.050063
 21
97.720712
 31
0.0
  0
LINE
  5
190A
100
AcDbEntity
  8
0
  6
CONTINUOUS
 62
     7
100
AcDbLine
 10
165.700063
 20
97.370712
 30
0.0
 11
169.900063
 21
97.370712
 31
0.0
  0
LINE
  5
190B
100
AcDbEntity
  8
0
  6
CONTINUOUS
 62
     7
100
AcDbLine
 10
165.700063
 20
97.370712
 30
0.0
 11
166.050063
 21
97.720712
 31
0.0
  0
LINE
  5
190C
100
AcDbEntity
  8
0
  6
CONTINUOUS
 62
     7
100
AcDbLine
 10
169.550063
 20
97.720712
 30
0.0
 11
169.900063
 21
97.370712
 31
0.0
  0
ENDBLK
  5
190E
100
AcDbEntity
  8
0
100
AcDbBlockEnd
  0
BLOCK
  5
1B04
100
AcDbEntity
  8
0
100
AcDbBlockBegin
  2
*D47
 70
     1
 10
0.0
 20
0.0
 30
0.0
  3
*D47
  1

  0
LINE
  5
1B05
100
AcDbEntity
  8
0
  6
BYBLOCK
 62
     0
100
AcDbLine
 10
107.630055
 20
13.664235
 30
0.0
 11
107.630055
 21
0.0
 31
0.0
  0
LINE
  5
1B06
100
AcDbEntity
  8
0
  6
BYBLOCK
 62
     0
100
AcDbLine
 10
56.880055
 20
13.139235
 30
0.0
 11
56.880055
 21
0.0
 31
0.0
  0
LINE
  5
1B07
100
AcDbEntity
  8
0
  6
BYBLOCK
 62
     0
100
AcDbLine
 10
105.630055
 20
1.0
 30
0.0
 11
58.880055
 21
1.0
 31
0.0
  0
SOLID
  5
1B08
100
AcDbEntity
  8
0
  6
BYBLOCK
 62
     0
100
AcDbTrace
 10
105.630055
 20
1.333334
 30
0.0
 11
105.630055
 21
0.666667
 31
0.0
 12
107.630055
 22
1.0
 32
0.0
 13
107.630055
 23
1.0
 33
0.0
  0
SOLID
  5
1B09
100
AcDbEntity
  8
0
  6
BYBLOCK
 62
     0
100
AcDbTrace
 10
58.880055
 20
1.333334
 30
0.0
 11
58.880055
 21
0.666667
 31
0.0
 12
56.880055
 22
1.0
 32
0.0
 13
56.880055
 23
1.0
 33
0.0
  0
MTEXT
  5
1B0A
100
AcDbEntity
  8
0
  6
BYBLOCK
 62
     7
100
AcDbMText
 10
82.255055
 20
3.5
 30
0.0
 40
3.0
 41
0.0
 71
     5
 72
     1
  1
\A1;L
  7
ROMANS
  0
POINT
  5
1B0B
100
AcDbEntity
  8
DEFPOINTS
  6
BYBLOCK
 62
     0
100
AcDbPoint
 10
107.630055
 20
14.664235
 30
0.0
  0
POINT
  5
1B0C
100
AcDbEntity
  8
DEFPOINTS
  6
BYBLOCK
 62
     0
100
AcDbPoint
 10
56.880055
 20
14.139235
 30
0.0
  0
POINT
  5
1B0D
100
AcDbEntity
  8
DEFPOINTS
  6
BYBLOCK
 62
     0
100
AcDbPoint
 10
56.880055
 20
1.0
 30
0.0
  0
ENDBLK
  5
1B0E
100
AcDbEntity
  8
0
100
AcDbBlockEnd
  0
BLOCK
  5
1B0F
100
AcDbEntity
  8
0
100
AcDbBlockBegin
  2
*D48
 70
     1
 10
0.0
 20
0.0
 30
0.0
  3
*D48
  1

  0
LINE
  5
1B10
100
AcDbEntity
  8
0
  6
BYBLOCK
 62
     0
100
AcDbLine
 10
10.730055
 20
66.045712
 30
0.0
 11
3.0639
 21
66.045712
 31
0.0
  0
LINE
  5
1B11
100
AcDbEntity
  8
0
  6
BYBLOCK
 62
     0
100
AcDbLine
 10
10.730055
 20
81.795712
 30
0.0
 11
3.0639
 21
81.795712
 31
0.0
  0
LINE
  5
1B12
100
AcDbEntity
  8
0
  6
BYBLOCK
 62
     0
100
AcDbLine
 10
4.0639
 20
68.045712
 30
0.0
 11
4.0639
 21
79.795712
 31
0.0
  0
SOLID
  5
1B13
100
AcDbEntity
  8
0
  6
BYBLOCK
 62
     0
100
AcDbTrace
 10
3.730567
 20
68.045712
 30
0.0
 11
4.397234
 21
68.045712
 31
0.0
 12
4.0639
 22
66.045712
 32
0.0
 13
4.0639
 23
66.045712
 33
0.0
  0
SOLID
  5
1B14
100
AcDbEntity
  8
0
  6
BYBLOCK
 62
     0
100
AcDbTrace
 10
3.730567
 20
79.795712
 30
0.0
 11
4.397234
 21
79.795712
 31
0.0
 12
4.0639
 22
81.795712
 32
0.0
 13
4.0639
 23
81.795712
 33
0.0
  0
MTEXT
  5
1B15
100
AcDbEntity
  8
0
  6
BYBLOCK
 62
     7
100
AcDbMText
 10
1.5639
 20
73.920712
 30
0.0
 40
3.0
 41
0.0
 71
     5
 72
     1
  1
\A1;a
  7
ROMANS
 11
0.0
 21
1.0
 31
0.0
  0
POINT
  5
1B16
100
AcDbEntity
  8
DEFPOINTS
  6
BYBLOCK
 62
     0
100
AcDbPoint
 10
11.730055
 20
66.045712
 30
0.0
  0
POINT
  5
1B17
100
AcDbEntity
  8
DEFPOINTS
  6
BYBLOCK
 62
     0
100
AcDbPoint
 10
11.730055
 20
81.795712
 30
0.0
  0
POINT
  5
1B18
100
AcDbEntity
  8
DEFPOINTS
  6
BYBLOCK
 62
     0
100
AcDbPoint
 10
4.0639
 20
81.795712
 30
0.0
  0
ENDBLK
  5
1B19
100
AcDbEntity
  8
0
100
AcDbBlockEnd
  0
BLOCK
  5
1B1A
100
AcDbEntity
  8
0
100
AcDbBlockBegin
  2
*D49
 70
     1
 10
0.0
 20
0.0
 30
0.0
  3
*D49
  1

  0
LINE
  5
1B1B
100
AcDbEntity
  8
0
  6
BYBLOCK
 62
     0
100
AcDbLine
 10
11.780055
 20
9.414235
 30
0.0
 11
3.0
 21
9.414235
 31
0.0
  0
LINE
  5
1B1C
100
AcDbEntity
  8
0
  6
BYBLOCK
 62
     0
100
AcDbLine
 10
11.780055
 20
33.914235
 30
0.0
 11
3.0
 21
33.914235
 31
0.0
  0
LINE
  5
1B1D
100
AcDbEntity
  8
0
  6
BYBLOCK
 62
     0
100
AcDbLine
 10
4.0
 20
11.414235
 30
0.0
 11
4.0
 21
31.914235
 31
0.0
  0
SOLID
  5
1B1E
100
AcDbEntity
  8
0
  6
BYBLOCK
 62
     0
100
AcDbTrace
 10
3.666667
 20
11.414235
 30
0.0
 11
4.333334
 21
11.414235
 31
0.0
 12
4.0
 22
9.414235
 32
0.0
 13
4.0
 23
9.414235
 33
0.0
  0
SOLID
  5
1B1F
100
AcDbEntity
  8
0
  6
BYBLOCK
 62
     0
100
AcDbTrace
 10
3.666667
 20
31.914235
 30
0.0
 11
4.333334
 21
31.914235
 31
0.0
 12
4.0
 22
33.914235
 32
0.0
 13
4.0
 23
33.914235
 33
0.0
  0
MTEXT
  5
1B20
100
AcDbEntity
  8
0
  6
BYBLOCK
 62
     7
100
AcDbMText
 10
1.5
 20
21.664235
 30
0.0
 40
3.0
 41
0.0
 71
     5
 72
     1
  1
\A1;B
  7
ROMANS
 11
0.0
 21
1.0
 31
0.0
  0
POINT
  5
1B21
100
AcDbEntity
  8
DEFPOINTS
  6
BYBLOCK
 62
     0
100
AcDbPoint
 10
12.780055
 20
9.414235
 30
0.0
  0
POINT
  5
1B22
100
AcDbEntity
  8
DEFPOINTS
  6
BYBLOCK
 62
     0
100
AcDbPoint
 10
12.780055
 20
33.914235
 30
0.0
  0
POINT
  5
1B23
100
AcDbEntity
  8
DEFPOINTS
  6
BYBLOCK
 62
     0
100
AcDbPoint
 10
4.0
 20
33.914235
 30
0.0
  0
ENDBLK
  5
1B24
100
AcDbEntity
  8
0
100
AcDbBlockEnd
  0
BLOCK
  5
1B25
100
AcDbEntity
  8
0
100
AcDbBlockBegin
  2
*D50
 70
     1
 10
0.0
 20
0.0
 30
0.0
  3
*D50
  1

  0
LINE
  5
1B26
100
AcDbEntity
  8
0
  6
BYBLOCK
 62
     0
100
AcDbLine
 10
35.366526
 20
40.572369
 30
0.0
 11
31.869203
 21
34.674137
 31
0.0
  0
LINE
  5
1B27
100
AcDbEntity
  8
0
  6
BYBLOCK
 62
     0
100
AcDbLine
 10
16.440908
 20
8.654333
 30
0.0
 11
15.420855
 21
6.934015
 31
0.0
  0
MTEXT
  5
1B28
100
AcDbEntity
  8
0
  6
BYBLOCK
 62
     7
100
AcDbMText
 10
32.268938
 20
40.249997
 30
0.0
 40
3.0
 41
0.0
 71
     5
 72
     1
  1
\A1;b
  7
ROMANS
 11
0.510026
 21
0.860159
 31
0.0
  0
LINE
  5
1B29
100
AcDbEntity
  8
0
  6
BYBLOCK
 62
     0
100
AcDbLine
 10
17.46096
 20
10.374651
 30
0.0
 11
30.849151
 21
32.953819
 31
0.0
  0
SOLID
  5
1B2A
100
AcDbEntity
  8
0
  6
BYBLOCK
 62
     0
100
AcDbTrace
 10
16.154188
 20
8.824342
 30
0.0
 11
16.727627
 21
8.484324
 31
0.0
 12
17.46096
 22
10.374651
 32
0.0
 13
17.46096
 23
10.374651
 33
0.0
  0
SOLID
  5
1B2B
100
AcDbEntity
  8
0
  6
BYBLOCK
 62
     0
100
AcDbTrace
 10
31.582484
 20
34.844146
 30
0.0
 11
32.155923
 21
34.504128
 31
0.0
 12
30.849151
 22
32.953819
 32
0.0
 13
30.849151
 23
32.953819
 33
0.0
  0
POINT
  5
1B2C
100
AcDbEntity
  8
DEFPOINTS
  6
BYBLOCK
 62
     0
100
AcDbPoint
 10
30.849151
 20
32.953819
 30
0.0
  0
POINT
  5
1B2D
100
AcDbEntity
  8
DEFPOINTS
  6
BYBLOCK
 62
     0
100
AcDbPoint
 10
17.46096
 20
10.374651
 30
0.0
  0
ENDBLK
  5
1B2E
100
AcDbEntity
  8
0
100
AcDbBlockEnd
  0
BLOCK
  5
1B2F
100
AcDbEntity
  8
0
100
AcDbBlockBegin
  2
*D51
 70
     1
 10
0.0
 20
0.0
 30
0.0
  3
*D51
  1

  0
LINE
  5
1B30
100
AcDbEntity
  8
0
  6
BYBLOCK
 62
     0
100
AcDbLine
 10
13.730769
 20
42.254396
 30
0.0
 11
18.667061
 21
32.50418
 31
0.0
  0
LINE
  5
1B31
100
AcDbEntity
  8
0
  6
BYBLOCK
 62
     0
100
AcDbLine
 10
29.64305
 20
10.82429
 30
0.0
 11
30.546424
 21
9.039937
 31
0.0
  0
MTEXT
  5
1B32
100
AcDbEntity
  8
0
  6
BYBLOCK
 62
     7
100
AcDbMText
 10
16.864584
 20
41.59926
 30
0.0
 40
3.0
 41
0.0
 71
     5
 72
     1
  1
\A1;D
  7
ROMANS
 11
0.451687
 21
-0.892177
 31
0.0
  0
LINE
  5
1B33
100
AcDbEntity
  8
0
  6
BYBLOCK
 62
     0
100
AcDbLine
 10
28.739677
 20
12.608643
 30
0.0
 11
19.570434
 21
30.719827
 31
0.0
  0
SOLID
  5
1B34
100
AcDbEntity
  8
0
  6
BYBLOCK
 62
     0
100
AcDbTrace
 10
29.940442
 20
10.974852
 30
0.0
 11
29.345658
 21
10.673727
 31
0.0
 12
28.739677
 22
12.608643
 32
0.0
 13
28.739677
 23
12.608643
 33
0.0
  0
SOLID
  5
1B35
100
AcDbEntity
  8
0
  6
BYBLOCK
 62
     0
100
AcDbTrace
 10
18.964453
 20
32.654743
 30
0.0
 11
18.369669
 21
32.353618
 31
0.0
 12
19.570434
 22
30.719827
 32
0.0
 13
19.570434
 23
30.719827
 33
0.0
  0
POINT
  5
1B36
100
AcDbEntity
  8
DEFPOINTS
  6
BYBLOCK
 62
     0
100
AcDbPoint
 10
19.570434
 20
30.719827
 30
0.0
  0
POINT
  5
1B37
100
AcDbEntity
  8
DEFPOINTS
  6
BYBLOCK
 62
     0
100
AcDbPoint
 10
28.739677
 20
12.608643
 30
0.0
  0
ENDBLK
  5
1B38
100
AcDbEntity
  8
0
100
AcDbBlockEnd
  0
BLOCK
  5
1B39
100
AcDbEntity
  8
0
100
AcDbBlockBegin
  2
*D52
 70
     1
 10
0.0
 20
0.0
 30
0.0
  3
*D52
  1

  0
LINE
  5
1B3A
100
AcDbEntity
  8
0
  6
BYBLOCK
 62
     0
100
AcDbLine
 10
56.880055
 20
13.139235
 30
0.0
 11
56.880055
 21
0.0
 31
0.0
  0
LINE
  5
1B3B
100
AcDbEntity
  8
0
  6
BYBLOCK
 62
     0
100
AcDbLine
 10
35.530055
 20
8.414235
 30
0.0
 11
35.530055
 21
0.0
 31
0.0
  0
LINE
  5
1B3C
100
AcDbEntity
  8
0
  6
BYBLOCK
 62
     0
100
AcDbLine
 10
54.880055
 20
1.0
 30
0.0
 11
37.530055
 21
1.0
 31
0.0
  0
SOLID
  5
1B3D
100
AcDbEntity
  8
0
  6
BYBLOCK
 62
     0
100
AcDbTrace
 10
54.880055
 20
1.333334
 30
0.0
 11
54.880055
 21
0.666667
 31
0.0
 12
56.880055
 22
1.0
 32
0.0
 13
56.880055
 23
1.0
 33
0.0
  0
SOLID
  5
1B3E
100
AcDbEntity
  8
0
  6
BYBLOCK
 62
     0
100
AcDbTrace
 10
37.530055
 20
1.333334
 30
0.0
 11
37.530055
 21
0.666667
 31
0.0
 12
35.530055
 22
1.0
 32
0.0
 13
35.530055
 23
1.0
 33
0.0
  0
MTEXT
  5
1B3F
100
AcDbEntity
  8
0
  6
BYBLOCK
 62
     7
100
AcDbMText
 10
46.205055
 20
3.5
 30
0.0
 40
3.0
 41
0.0
 71
     5
 72
     1
  1
\A1;L2
  7
ROMANS
  0
POINT
  5
1B40
100
AcDbEntity
  8
DEFPOINTS
  6
BYBLOCK
 62
     0
100
AcDbPoint
 10
56.880055
 20
14.139235
 30
0.0
  0
POINT
  5
1B41
100
AcDbEntity
  8
DEFPOINTS
  6
BYBLOCK
 62
     0
100
AcDbPoint
 10
35.530055
 20
9.414235
 30
0.0
  0
POINT
  5
1B42
100
AcDbEntity
  8
DEFPOINTS
  6
BYBLOCK
 62
     0
100
AcDbPoint
 10
35.530055
 20
1.0
 30
0.0
  0
ENDBLK
  5
1B43
100
AcDbEntity
  8
0
100
AcDbBlockEnd
  0
BLOCK
  5
1B44
100
AcDbEntity
  8
0
100
AcDbBlockBegin
  2
*D53
 70
     1
 10
0.0
 20
0.0
 30
0.0
  3
*D53
  1

  0
LINE
  5
1B45
100
AcDbEntity
  8
0
  6
BYBLOCK
 62
     0
100
AcDbLine
 10
35.530055
 20
8.414235
 30
0.0
 11
35.530055
 21
0.0
 31
0.0
  0
LINE
  5
1B46
100
AcDbEntity
  8
0
  6
BYBLOCK
 62
     0
100
AcDbLine
 10
12.780055
 20
8.414235
 30
0.0
 11
12.780055
 21
0.0
 31
0.0
  0
LINE
  5
1B47
100
AcDbEntity
  8
0
  6
BYBLOCK
 62
     0
100
AcDbLine
 10
33.530055
 20
1.0
 30
0.0
 11
14.780055
 21
1.0
 31
0.0
  0
SOLID
  5
1B48
100
AcDbEntity
  8
0
  6
BYBLOCK
 62
     0
100
AcDbTrace
 10
33.530055
 20
1.333334
 30
0.0
 11
33.530055
 21
0.666667
 31
0.0
 12
35.530055
 22
1.0
 32
0.0
 13
35.530055
 23
1.0
 33
0.0
  0
SOLID
  5
1B49
100
AcDbEntity
  8
0
  6
BYBLOCK
 62
     0
100
AcDbTrace
 10
14.780055
 20
1.333334
 30
0.0
 11
14.780055
 21
0.666667
 31
0.0
 12
12.780055
 22
1.0
 32
0.0
 13
12.780055
 23
1.0
 33
0.0
  0
MTEXT
  5
1B4A
100
AcDbEntity
  8
0
  6
BYBLOCK
 62
     7
100
AcDbMText
 10
24.155055
 20
3.5
 30
0.0
 40
3.0
 41
0.0
 71
     5
 72
     1
  1
\A1;A
  7
ROMANS
  0
POINT
  5
1B4B
100
AcDbEntity
  8
DEFPOINTS
  6
BYBLOCK
 62
     0
100
AcDbPoint
 10
35.530055
 20
9.414235
 30
0.0
  0
POINT
  5
1B4C
100
AcDbEntity
  8
DEFPOINTS
  6
BYBLOCK
 62
     0
100
AcDbPoint
 10
12.780055
 20
9.414235
 30
0.0
  0
POINT
  5
1B4D
100
AcDbEntity
  8
DEFPOINTS
  6
BYBLOCK
 62
     0
100
AcDbPoint
 10
12.780055
 20
1.0
 30
0.0
  0
ENDBLK
  5
1B4E
100
AcDbEntity
  8
0
100
AcDbBlockEnd
  0
BLOCK
  5
1B4F
100
AcDbEntity
  8
0
100
AcDbBlockBegin
  2
*D54
 70
     1
 10
0.0
 20
0.0
 30
0.0
  3
*D54
  1

  0
LINE
  5
1B50
100
AcDbEntity
  8
0
  6
BYBLOCK
 62
     0
100
AcDbLine
 10
12.780055
 20
58.220712
 30
0.0
 11
12.780055
 21
47.0324
 31
0.0
  0
LINE
  5
1B51
100
AcDbEntity
  8
0
  6
BYBLOCK
 62
     0
100
AcDbLine
 10
24.155055
 20
48.070712
 30
0.0
 11
24.155055
 21
47.0324
 31
0.0
  0
LINE
  5
1B52
100
AcDbEntity
  8
0
  6
BYBLOCK
 62
     0
100
AcDbLine
 10
22.155055
 20
48.0324
 30
0.0
 11
14.780055
 21
48.0324
 31
0.0
  0
LINE
  5
1B53
100
AcDbEntity
  8
0
  6
BYBLOCK
 62
     0
100
AcDbLine
 10
12.780055
 20
48.0324
 30
0.0
 11
5.280055
 21
48.0324
 31
0.0
  0
SOLID
  5
1B54
100
AcDbEntity
  8
0
  6
BYBLOCK
 62
     0
100
AcDbTrace
 10
22.155055
 20
48.365734
 30
0.0
 11
22.155055
 21
47.699067
 31
0.0
 12
24.155055
 22
48.0324
 32
0.0
 13
24.155055
 23
48.0324
 33
0.0
  0
SOLID
  5
1B55
100
AcDbEntity
  8
0
  6
BYBLOCK
 62
     0
100
AcDbTrace
 10
14.780055
 20
48.365734
 30
0.0
 11
14.780055
 21
47.699067
 31
0.0
 12
12.780055
 22
48.0324
 32
0.0
 13
12.780055
 23
48.0324
 33
0.0
  0
MTEXT
  5
1B56
100
AcDbEntity
  8
0
  6
BYBLOCK
 62
     7
100
AcDbMText
 10
7.280055
 20
50.5324
 30
0.0
 40
3.0
 41
0.0
 71
     5
 72
     1
  1
\A1;H
  7
ROMANS
  0
POINT
  5
1B57
100
AcDbEntity
  8
DEFPOINTS
  6
BYBLOCK
 62
     0
100
AcDbPoint
 10
12.780055
 20
59.220712
 30
0.0
  0
POINT
  5
1B58
100
AcDbEntity
  8
DEFPOINTS
  6
BYBLOCK
 62
     0
100
AcDbPoint
 10
24.155055
 20
49.070712
 30
0.0
  0
POINT
  5
1B59
100
AcDbEntity
  8
DEFPOINTS
  6
BYBLOCK
 62
     0
100
AcDbPoint
 10
24.155055
 20
48.0324
 30
0.0
  0
ENDBLK
  5
1B5A
100
AcDbEntity
  8
0
100
AcDbBlockEnd
  0
BLOCK
  5
1B5B
100
AcDbEntity
  8
0
100
AcDbBlockBegin
  2
*D55
 70
     1
 10
0.0
 20
0.0
 30
0.0
  3
*D55
  1

  0
LINE
  5
1B5C
100
AcDbEntity
  8
0
  6
BYBLOCK
 62
     0
100
AcDbLine
 10
35.305055
 20
87.745712
 30
0.0
 11
48.478325
 21
87.745712
 31
0.0
  0
LINE
  5
1B5D
100
AcDbEntity
  8
0
  6
BYBLOCK
 62
     0
100
AcDbLine
 10
36.530055
 20
88.620712
 30
0.0
 11
48.478325
 21
88.620712
 31
0.0
  0
LINE
  5
1B5E
100
AcDbEntity
  8
0
  6
BYBLOCK
 62
     0
100
AcDbLine
 10
47.478325
 20
85.745712
 30
0.0
 11
47.478325
 21
83.745712
 31
0.0
  0
LINE
  5
1B5F
100
AcDbEntity
  8
0
  6
BYBLOCK
 62
     0
100
AcDbLine
 10
47.478325
 20
90.620712
 30
0.0
 11
47.478325
 21
96.334998
 31
0.0
  0
LINE
  5
1B60
100
AcDbEntity
  8
0
  6
BYBLOCK
 62
     0
100
AcDbLine
 10
47.478325
 20
87.745712
 30
0.0
 11
47.478325
 21
88.620712
 31
0.0
  0
SOLID
  5
1B61
100
AcDbEntity
  8
0
  6
BYBLOCK
 62
     0
100
AcDbTrace
 10
47.144992
 20
85.745712
 30
0.0
 11
47.811659
 21
85.745712
 31
0.0
 12
47.478325
 22
87.745712
 32
0.0
 13
47.478325
 23
87.745712
 33
0.0
  0
SOLID
  5
1B62
100
AcDbEntity
  8
0
  6
BYBLOCK
 62
     0
100
AcDbTrace
 10
47.144992
 20
90.620712
 30
0.0
 11
47.811659
 21
90.620712
 31
0.0
 12
47.478325
 22
88.620712
 32
0.0
 13
47.478325
 23
88.620712
 33
0.0
  0
MTEXT
  5
1B63
100
AcDbEntity
  8
0
  6
BYBLOCK
 62
     7
100
AcDbMText
 10
44.478325
 20
94.477855
 30
0.0
 40
3.0
 41
0.0
 71
     5
 72
     1
  1
\A1;g
  7
ROMANS
 11
0.0
 21
1.0
 31
0.0
  0
POINT
  5
1B64
100
AcDbEntity
  8
DEFPOINTS
  6
BYBLOCK
 62
     0
100
AcDbPoint
 10
34.305055
 20
87.745712
 30
0.0
  0
POINT
  5
1B65
100
AcDbEntity
  8
DEFPOINTS
  6
BYBLOCK
 62
     0
100
AcDbPoint
 10
35.530055
 20
88.620712
 30
0.0
  0
POINT
  5
1B66
100
AcDbEntity
  8
DEFPOINTS
  6
BYBLOCK
 62
     0
100
AcDbPoint
 10
47.478325
 20
88.620712
 30
0.0
  0
ENDBLK
  5
1B67
100
AcDbEntity
  8
0
100
AcDbBlockEnd
  0
BLOCK
  5
1B68
100
AcDbEntity
  8
0
100
AcDbBlockBegin
  2
*D56
 70
     1
 10
0.0
 20
0.0
 30
0.0
  3
*D56
  1

  0
LINE
  5
1B69
100
AcDbEntity
  8
0
  6
BYBLOCK
 62
     0
100
AcDbLine
 10
32.030055
 20
84.895712
 30
0.0
 11
32.030055
 21
104.4365
 31
0.0
  0
LINE
  5
1B6A
100
AcDbEntity
  8
0
  6
BYBLOCK
 62
     0
100
AcDbLine
 10
16.280055
 20
84.895712
 30
0.0
 11
16.280055
 21
104.4365
 31
0.0
  0
LINE
  5
1B6B
100
AcDbEntity
  8
0
  6
BYBLOCK
 62
     0
100
AcDbLine
 10
30.030055
 20
103.4365
 30
0.0
 11
18.280055
 21
103.4365
 31
0.0
  0
SOLID
  5
1B6C
100
AcDbEntity
  8
0
  6
BYBLOCK
 62
     0
100
AcDbTrace
 10
30.030055
 20
103.769834
 30
0.0
 11
30.030055
 21
103.103167
 31
0.0
 12
32.030055
 22
103.4365
 32
0.0
 13
32.030055
 23
103.4365
 33
0.0
  0
SOLID
  5
1B6D
100
AcDbEntity
  8
0
  6
BYBLOCK
 62
     0
100
AcDbTrace
 10
18.280055
 20
103.769834
 30
0.0
 11
18.280055
 21
103.103167
 31
0.0
 12
16.280055
 22
103.4365
 32
0.0
 13
16.280055
 23
103.4365
 33
0.0
  0
MTEXT
  5
1B6E
100
AcDbEntity
  8
0
  6
BYBLOCK
 62
     7
100
AcDbMText
 10
24.155055
 20
105.9365
 30
0.0
 40
3.0
 41
0.0
 71
     5
 72
     1
  1
\A1;a
  7
ROMANS
  0
POINT
  5
1B6F
100
AcDbEntity
  8
DEFPOINTS
  6
BYBLOCK
 62
     0
100
AcDbPoint
 10
32.030055
 20
83.895712
 30
0.0
  0
POINT
  5
1B70
100
AcDbEntity
  8
DEFPOINTS
  6
BYBLOCK
 62
     0
100
AcDbPoint
 10
16.280055
 20
83.895712
 30
0.0
  0
POINT
  5
1B71
100
AcDbEntity
  8
DEFPOINTS
  6
BYBLOCK
 62
     0
100
AcDbPoint
 10
16.280055
 20
103.4365
 30
0.0
  0
ENDBLK
  5
1B72
100
AcDbEntity
  8
0
100
AcDbBlockEnd
  0
BLOCK
  5
1B73
100
AcDbEntity
  8
0
100
AcDbBlockBegin
  2
*D57
 70
     1
 10
0.0
 20
0.0
 30
0.0
  3
*D57
  1

  0
LINE
  5
1B74
100
AcDbEntity
  8
0
  6
BYBLOCK
 62
     0
100
AcDbLine
 10
110.4112
 20
80.2364
 30
0.0
 11
110.4112
 21
91.808278
 31
0.0
  0
LINE
  5
1B75
100
AcDbEntity
  8
0
  6
BYBLOCK
 62
     0
100
AcDbLine
 10
114.980055
 20
80.870712
 30
0.0
 11
114.980055
 21
91.808278
 31
0.0
  0
LINE
  5
1B76
100
AcDbEntity
  8
0
  6
BYBLOCK
 62
     0
100
AcDbLine
 10
108.4112
 20
90.808278
 30
0.0
 11
106.4112
 21
90.808278
 31
0.0
  0
LINE
  5
1B77
100
AcDbEntity
  8
0
  6
BYBLOCK
 62
     0
100
AcDbLine
 10
116.980055
 20
90.808278
 30
0.0
 11
125.408627
 21
90.808278
 31
0.0
  0
LINE
  5
1B78
100
AcDbEntity
  8
0
  6
BYBLOCK
 62
     0
100
AcDbLine
 10
110.4112
 20
90.808278
 30
0.0
 11
114.980055
 21
90.808278
 31
0.0
  0
SOLID
  5
1B79
100
AcDbEntity
  8
0
  6
BYBLOCK
 62
     0
100
AcDbTrace
 10
108.4112
 20
91.141612
 30
0.0
 11
108.4112
 21
90.474945
 31
0.0
 12
110.4112
 22
90.808278
 32
0.0
 13
110.4112
 23
90.808278
 33
0.0
  0
SOLID
  5
1B7A
100
AcDbEntity
  8
0
  6
BYBLOCK
 62
     0
100
AcDbTrace
 10
116.980055
 20
91.141612
 30
0.0
 11
116.980055
 21
90.474945
 31
0.0
 12
114.980055
 22
90.808278
 32
0.0
 13
114.980055
 23
90.808278
 33
0.0
  0
MTEXT
  5
1B7B
100
AcDbEntity
  8
0
  6
BYBLOCK
 62
     7
100
AcDbMText
 10
122.194341
 20
93.308278
 30
0.0
 40
3.0
 41
0.0
 71
     5
 72
     1
  1
\A1;L4
  7
ROMANS
  0
POINT
  5
1B7C
100
AcDbEntity
  8
DEFPOINTS
  6
BYBLOCK
 62
     0
100
AcDbPoint
 10
110.4112
 20
79.2364
 30
0.0
  0
POINT
  5
1B7D
100
AcDbEntity
  8
DEFPOINTS
  6
BYBLOCK
 62
     0
100
AcDbPoint
 10
114.980055
 20
79.870712
 30
0.0
  0
POINT
  5
1B7E
100
AcDbEntity
  8
DEFPOINTS
  6
BYBLOCK
 62
     0
100
AcDbPoint
 10
114.980055
 20
90.808278
 30
0.0
  0
ENDBLK
  5
1B7F
100
AcDbEntity
  8
0
100
AcDbBlockEnd
  0
BLOCK
  5
1C1A
100
AcDbEntity
  8
0
100
AcDbBlockBegin
  2
*D58
 70
     1
 10
0.0
 20
0.0
 30
0.0
  3
*D58
  1

  0
LINE
  5
1C1B
100
AcDbEntity
  8
0
  6
BYBLOCK
 62
     0
100
AcDbLine
 10
115.980055
 20
69.010925
 30
0.0
 11
123.1407
 21
69.010925
 31
0.0
  0
LINE
  5
1C1C
100
AcDbEntity
  8
0
  6
BYBLOCK
 62
     0
100
AcDbLine
 10
115.89838
 20
78.8305
 30
0.0
 11
123.1407
 21
78.8305
 31
0.0
  0
LINE
  5
1C1D
100
AcDbEntity
  8
0
  6
BYBLOCK
 62
     0
100
AcDbLine
 10
122.1407
 20
71.010925
 30
0.0
 11
122.1407
 21
76.8305
 31
0.0
  0
SOLID
  5
1C1E
100
AcDbEntity
  8
0
  6
BYBLOCK
 62
     0
100
AcDbTrace
 10
121.807367
 20
71.010925
 30
0.0
 11
122.474034
 21
71.010925
 31
0.0
 12
122.1407
 22
69.010925
 32
0.0
 13
122.1407
 23
69.010925
 33
0.0
  0
SOLID
  5
1C1F
100
AcDbEntity
  8
0
  6
BYBLOCK
 62
     0
100
AcDbTrace
 10
121.807367
 20
76.8305
 30
0.0
 11
122.474034
 21
76.8305
 31
0.0
 12
122.1407
 22
78.8305
 32
0.0
 13
122.1407
 23
78.8305
 33
0.0
  0
MTEXT
  5
1C20
100
AcDbEntity
  8
0
  6
BYBLOCK
 62
     7
100
AcDbMText
 10
119.6407
 20
73.920712
 30
0.0
 40
3.0
 41
0.0
 71
     5
 72
     1
  1
\A1;d1
  7
ROMANS
 11
0.0
 21
1.0
 31
0.0
  0
POINT
  5
1C21
100
AcDbEntity
  8
DEFPOINTS
  6
BYBLOCK
 62
     0
100
AcDbPoint
 10
114.980055
 20
69.010925
 30
0.0
  0
POINT
  5
1C22
100
AcDbEntity
  8
DEFPOINTS
  6
BYBLOCK
 62
     0
100
AcDbPoint
 10
114.89838
 20
78.8305
 30
0.0
  0
POINT
  5
1C23
100
AcDbEntity
  8
DEFPOINTS
  6
BYBLOCK
 62
     0
100
AcDbPoint
 10
122.1407
 20
78.8305
 30
0.0
  0
ENDBLK
  5
1C24
100
AcDbEntity
  8
0
100
AcDbBlockEnd
  0
BLOCK
  5
1B8C
100
AcDbEntity
  8
0
100
AcDbBlockBegin
  2
*D59
 70
     1
 10
0.0
 20
0.0
 30
0.0
  3
*D59
  1

  0
LINE
  5
1B8D
100
AcDbEntity
  8
0
  6
BYBLOCK
 62
     0
100
AcDbLine
 10
154.550063
 20
59.220712
 30
0.0
 11
140.938625
 21
59.220712
 31
0.0
  0
LINE
  5
1B8E
100
AcDbEntity
  8
0
  6
BYBLOCK
 62
     0
100
AcDbLine
 10
154.550063
 20
88.620712
 30
0.0
 11
140.938625
 21
88.620712
 31
0.0
  0
LINE
  5
1B8F
100
AcDbEntity
  8
0
  6
BYBLOCK
 62
     0
100
AcDbLine
 10
141.938625
 20
61.220712
 30
0.0
 11
141.938625
 21
86.620712
 31
0.0
  0
SOLID
  5
1B90
100
AcDbEntity
  8
0
  6
BYBLOCK
 62
     0
100
AcDbTrace
 10
141.605292
 20
61.220712
 30
0.0
 11
142.271959
 21
61.220712
 31
0.0
 12
141.938625
 22
59.220712
 32
0.0
 13
141.938625
 23
59.220712
 33
0.0
  0
SOLID
  5
1B91
100
AcDbEntity
  8
0
  6
BYBLOCK
 62
     0
100
AcDbTrace
 10
141.605292
 20
86.620712
 30
0.0
 11
142.271959
 21
86.620712
 31
0.0
 12
141.938625
 22
88.620712
 32
0.0
 13
141.938625
 23
88.620712
 33
0.0
  0
MTEXT
  5
1B92
100
AcDbEntity
  8
0
  6
BYBLOCK
 62
     7
100
AcDbMText
 10
139.438625
 20
73.920712
 30
0.0
 40
3.0
 41
0.0
 71
     5
 72
     1
  1
\A1;C
  7
ROMANS
 11
0.0
 21
1.0
 31
0.0
  0
POINT
  5
1B93
100
AcDbEntity
  8
DEFPOINTS
  6
BYBLOCK
 62
     0
100
AcDbPoint
 10
155.550063
 20
59.220712
 30
0.0
  0
POINT
  5
1B94
100
AcDbEntity
  8
DEFPOINTS
  6
BYBLOCK
 62
     0
100
AcDbPoint
 10
155.550063
 20
88.620712
 30
0.0
  0
POINT
  5
1B95
100
AcDbEntity
  8
DEFPOINTS
  6
BYBLOCK
 62
     0
100
AcDbPoint
 10
141.938625
 20
88.620712
 30
0.0
  0
ENDBLK
  5
1B96
100
AcDbEntity
  8
0
100
AcDbBlockEnd
  0
BLOCK
  5
1B97
100
AcDbEntity
  8
0
100
AcDbBlockBegin
  2
*D60
 70
     1
 10
0.0
 20
0.0
 30
0.0
  3
*D60
  1

  0
LINE
  5
1B98
100
AcDbEntity
  8
0
  6
BYBLOCK
 62
     0
100
AcDbLine
 10
171.250063
 20
58.870712
 30
0.0
 11
188.373125
 21
58.870712
 31
0.0
  0
LINE
  5
1B99
100
AcDbEntity
  8
0
  6
BYBLOCK
 62
     0
100
AcDbLine
 10
171.250063
 20
88.970712
 30
0.0
 11
188.373125
 21
88.970712
 31
0.0
  0
LINE
  5
1B9A
100
AcDbEntity
  8
0
  6
BYBLOCK
 62
     0
100
AcDbLine
 10
187.373125
 20
60.870712
 30
0.0
 11
187.373125
 21
86.970712
 31
0.0
  0
SOLID
  5
1B9B
100
AcDbEntity
  8
0
  6
BYBLOCK
 62
     0
100
AcDbTrace
 10
187.039792
 20
60.870712
 30
0.0
 11
187.706459
 21
60.870712
 31
0.0
 12
187.373125
 22
58.870712
 32
0.0
 13
187.373125
 23
58.870712
 33
0.0
  0
SOLID
  5
1B9C
100
AcDbEntity
  8
0
  6
BYBLOCK
 62
     0
100
AcDbTrace
 10
187.039792
 20
86.970712
 30
0.0
 11
187.706459
 21
86.970712
 31
0.0
 12
187.373125
 22
88.970712
 32
0.0
 13
187.373125
 23
88.970712
 33
0.0
  0
MTEXT
  5
1B9D
100
AcDbEntity
  8
0
  6
BYBLOCK
 62
     7
100
AcDbMText
 10
184.873125
 20
73.920712
 30
0.0
 40
3.0
 41
0.0
 71
     5
 72
     1
  1
\A1;F
  7
ROMANS
 11
0.0
 21
1.0
 31
0.0
  0
POINT
  5
1B9E
100
AcDbEntity
  8
DEFPOINTS
  6
BYBLOCK
 62
     0
100
AcDbPoint
 10
170.250063
 20
58.870712
 30
0.0
  0
POINT
  5
1B9F
100
AcDbEntity
  8
DEFPOINTS
  6
BYBLOCK
 62
     0
100
AcDbPoint
 10
170.250063
 20
88.970712
 30
0.0
  0
POINT
  5
1BA0
100
AcDbEntity
  8
DEFPOINTS
  6
BYBLOCK
 62
     0
100
AcDbPoint
 10
187.373125
 20
88.970712
 30
0.0
  0
ENDBLK
  5
1BA1
100
AcDbEntity
  8
0
100
AcDbBlockEnd
  0
BLOCK
  5
1BA2
100
AcDbEntity
  8
0
100
AcDbBlockBegin
  2
*D61
 70
     1
 10
0.0
 20
0.0
 30
0.0
  3
*D61
  1

  0
LINE
  5
1BA3
100
AcDbEntity
  8
0
  6
BYBLOCK
 62
     0
100
AcDbLine
 10
114.980055
 20
14.714235
 30
0.0
 11
114.980055
 21
0.0
 31
0.0
  0
LINE
  5
1BA4
100
AcDbEntity
  8
0
  6
BYBLOCK
 62
     0
100
AcDbLine
 10
107.630055
 20
13.664235
 30
0.0
 11
107.630055
 21
0.0
 31
0.0
  0
LINE
  5
1BA5
100
AcDbEntity
  8
0
  6
BYBLOCK
 62
     0
100
AcDbLine
 10
109.630055
 20
1.0
 30
0.0
 11
112.980055
 21
1.0
 31
0.0
  0
LINE
  5
1BA6
100
AcDbEntity
  8
0
  6
BYBLOCK
 62
     0
100
AcDbLine
 10
114.980055
 20
1.0
 30
0.0
 11
135.831568
 21
1.0
 31
0.0
  0
SOLID
  5
1BA7
100
AcDbEntity
  8
0
  6
BYBLOCK
 62
     0
100
AcDbTrace
 10
109.630055
 20
1.333334
 30
0.0
 11
109.630055
 21
0.666667
 31
0.0
 12
107.630055
 22
1.0
 32
0.0
 13
107.630055
 23
1.0
 33
0.0
  0
SOLID
  5
1BA8
100
AcDbEntity
  8
0
  6
BYBLOCK
 62
     0
100
AcDbTrace
 10
112.980055
 20
1.333334
 30
0.0
 11
112.980055
 21
0.666667
 31
0.0
 12
114.980055
 22
1.0
 32
0.0
 13
114.980055
 23
1.0
 33
0.0
  0
MTEXT
  5
1BA9
100
AcDbEntity
  8
0
  6
BYBLOCK
 62
     7
100
AcDbMText
 10
126.974425
 20
3.5
 30
0.0
 40
3.0
 41
0.0
 71
     5
 72
     1
  1
\A1;L3 mín
  7
ROMANS
  0
POINT
  5
1BAA
100
AcDbEntity
  8
DEFPOINTS
  6
BYBLOCK
 62
     0
100
AcDbPoint
 10
114.980055
 20
15.714235
 30
0.0
  0
POINT
  5
1BAB
100
AcDbEntity
  8
DEFPOINTS
  6
BYBLOCK
 62
     0
100
AcDbPoint
 10
107.630055
 20
14.664235
 30
0.0
  0
POINT
  5
1BAC
100
AcDbEntity
  8
DEFPOINTS
  6
BYBLOCK
 62
     0
100
AcDbPoint
 10
107.630055
 20
1.0
 30
0.0
  0
ENDBLK
  5
1BAD
100
AcDbEntity
  8
0
100
AcDbBlockEnd
  0
BLOCK
  5
1BAE
100
AcDbEntity
  8
0
100
AcDbBlockBegin
  2
*D62
 70
     1
 10
0.0
 20
0.0
 30
0.0
  3
*D62
  1

  0
LINE
  5
1BAF
100
AcDbEntity
  8
0
  6
BYBLOCK
 62
     0
100
AcDbLine
 10
83.255055
 20
66.920712
 30
0.0
 11
88.963
 21
66.920712
 31
0.0
  0
LINE
  5
1BB0
100
AcDbEntity
  8
0
  6
BYBLOCK
 62
     0
100
AcDbLine
 10
83.255055
 20
80.920712
 30
0.0
 11
88.963
 21
80.920712
 31
0.0
  0
LINE
  5
1BB1
100
AcDbEntity
  8
0
  6
BYBLOCK
 62
     0
100
AcDbLine
 10
87.963
 20
68.920712
 30
0.0
 11
87.963
 21
78.920712
 31
0.0
  0
SOLID
  5
1BB2
100
AcDbEntity
  8
0
  6
BYBLOCK
 62
     0
100
AcDbTrace
 10
87.629667
 20
68.920712
 30
0.0
 11
88.296334
 21
68.920712
 31
0.0
 12
87.963
 22
66.920712
 32
0.0
 13
87.963
 23
66.920712
 33
0.0
  0
SOLID
  5
1BB3
100
AcDbEntity
  8
0
  6
BYBLOCK
 62
     0
100
AcDbTrace
 10
87.629667
 20
78.920712
 30
0.0
 11
88.296334
 21
78.920712
 31
0.0
 12
87.963
 22
80.920712
 32
0.0
 13
87.963
 23
80.920712
 33
0.0
  0
MTEXT
  5
1BB4
100
AcDbEntity
  8
0
  6
BYBLOCK
 62
     7
100
AcDbMText
 10
85.463
 20
73.920712
 30
0.0
 40
3.0
 41
0.0
 71
     5
 72
     1
  1
\A1;\U+2205D3
  7
ROMANS
 11
0.0
 21
1.0
 31
0.0
  0
POINT
  5
1BB5
100
AcDbEntity
  8
DEFPOINTS
  6
BYBLOCK
 62
     0
100
AcDbPoint
 10
82.255055
 20
66.920712
 30
0.0
  0
POINT
  5
1BB6
100
AcDbEntity
  8
DEFPOINTS
  6
BYBLOCK
 62
     0
100
AcDbPoint
 10
82.255055
 20
80.920712
 30
0.0
  0
POINT
  5
1BB7
100
AcDbEntity
  8
DEFPOINTS
  6
BYBLOCK
 62
     0
100
AcDbPoint
 10
87.963
 20
80.920712
 30
0.0
  0
ENDBLK
  5
1BB8
100
AcDbEntity
  8
0
100
AcDbBlockEnd
  0
BLOCK
  5
1BB9
100
AcDbEntity
  8
0
100
AcDbBlockBegin
  2
*D63
 70
     1
 10
0.0
 20
0.0
 30
0.0
  3
*D63
  1

  0
LINE
  5
1BBA
100
AcDbEntity
  8
0
  6
BYBLOCK
 62
     0
100
AcDbLine
 10
115.980055
 20
67.970712
 30
0.0
 11
129.7004
 21
67.970712
 31
0.0
  0
LINE
  5
1BBB
100
AcDbEntity
  8
0
  6
BYBLOCK
 62
     0
100
AcDbLine
 10
115.980055
 20
79.870712
 30
0.0
 11
129.7004
 21
79.870712
 31
0.0
  0
LINE
  5
1BBC
100
AcDbEntity
  8
0
  6
BYBLOCK
 62
     0
100
AcDbLine
 10
128.7004
 20
69.970712
 30
0.0
 11
128.7004
 21
77.870712
 31
0.0
  0
SOLID
  5
1BBD
100
AcDbEntity
  8
0
  6
BYBLOCK
 62
     0
100
AcDbTrace
 10
128.367067
 20
69.970712
 30
0.0
 11
129.033734
 21
69.970712
 31
0.0
 12
128.7004
 22
67.970712
 32
0.0
 13
128.7004
 23
67.970712
 33
0.0
  0
SOLID
  5
1BBE
100
AcDbEntity
  8
0
  6
BYBLOCK
 62
     0
100
AcDbTrace
 10
128.367067
 20
77.870712
 30
0.0
 11
129.033734
 21
77.870712
 31
0.0
 12
128.7004
 22
79.870712
 32
0.0
 13
128.7004
 23
79.870712
 33
0.0
  0
MTEXT
  5
1BBF
100
AcDbEntity
  8
0
  6
BYBLOCK
 62
     7
100
AcDbMText
 10
126.2004
 20
73.920712
 30
0.0
 40
3.0
 41
0.0
 71
     5
 72
     1
  1
\A1;\U+2205d2
  7
ROMANS
 11
0.0
 21
1.0
 31
0.0
  0
POINT
  5
1BC0
100
AcDbEntity
  8
DEFPOINTS
  6
BYBLOCK
 62
     0
100
AcDbPoint
 10
114.980055
 20
67.970712
 30
0.0
  0
POINT
  5
1BC1
100
AcDbEntity
  8
DEFPOINTS
  6
BYBLOCK
 62
     0
100
AcDbPoint
 10
114.980055
 20
79.870712
 30
0.0
  0
POINT
  5
1BC2
100
AcDbEntity
  8
DEFPOINTS
  6
BYBLOCK
 62
     0
100
AcDbPoint
 10
128.7004
 20
79.870712
 30
0.0
  0
ENDBLK
  5
1BC3
100
AcDbEntity
  8
0
100
AcDbBlockEnd
  0
BLOCK
  5
1BC4
100
AcDbEntity
  8
0
100
AcDbBlockBegin
  2
*D64
 70
     1
 10
0.0
 20
0.0
 30
0.0
  3
*D64
  1

  0
LINE
  5
1BC5
100
AcDbEntity
  8
0
  6
BYBLOCK
 62
     0
100
AcDbLine
 10
158.519813
 20
57.170712
 30
0.0
 11
158.519813
 21
39.556
 31
0.0
  0
LINE
  5
1BC6
100
AcDbEntity
  8
0
  6
BYBLOCK
 62
     0
100
AcDbLine
 10
177.080313
 20
57.170712
 30
0.0
 11
177.080313
 21
39.556
 31
0.0
  0
LINE
  5
1BC7
100
AcDbEntity
  8
0
  6
BYBLOCK
 62
     0
100
AcDbLine
 10
160.519813
 20
40.556
 30
0.0
 11
175.080313
 21
40.556
 31
0.0
  0
SOLID
  5
1BC8
100
AcDbEntity
  8
0
  6
BYBLOCK
 62
     0
100
AcDbTrace
 10
160.519813
 20
40.889334
 30
0.0
 11
160.519813
 21
40.222667
 31
0.0
 12
158.519813
 22
40.556
 32
0.0
 13
158.519813
 23
40.556
 33
0.0
  0
SOLID
  5
1BC9
100
AcDbEntity
  8
0
  6
BYBLOCK
 62
     0
100
AcDbTrace
 10
175.080313
 20
40.889334
 30
0.0
 11
175.080313
 21
40.222667
 31
0.0
 12
177.080313
 22
40.556
 32
0.0
 13
177.080313
 23
40.556
 33
0.0
  0
MTEXT
  5
1BCA
100
AcDbEntity
  8
0
  6
BYBLOCK
 62
     7
100
AcDbMText
 10
167.800063
 20
43.056
 30
0.0
 40
3.0
 41
0.0
 71
     5
 72
     1
  1
\A1;a
  7
ROMANS
  0
POINT
  5
1BCB
100
AcDbEntity
  8
DEFPOINTS
  6
BYBLOCK
 62
     0
100
AcDbPoint
 10
158.519813
 20
58.170712
 30
0.0
  0
POINT
  5
1BCC
100
AcDbEntity
  8
DEFPOINTS
  6
BYBLOCK
 62
     0
100
AcDbPoint
 10
177.080313
 20
58.170712
 30
0.0
  0
POINT
  5
1BCD
100
AcDbEntity
  8
DEFPOINTS
  6
BYBLOCK
 62
     0
100
AcDbPoint
 10
177.080313
 20
40.556
 30
0.0
  0
ENDBLK
  5
1BCE
100
AcDbEntity
  8
0
100
AcDbBlockEnd
  0
BLOCK
  5
1BCF
100
AcDbEntity
  8
0
100
AcDbBlockBegin
  2
*D65
 70
     1
 10
0.0
 20
0.0
 30
0.0
  3
*D65
  1

  0
LINE
  5
1BD0
100
AcDbEntity
  8
0
  6
BYBLOCK
 62
     0
100
AcDbLine
 10
154.719169
 20
50.309778
 30
0.0
 11
158.967099
 21
63.15006
 31
0.0
  0
LINE
  5
1BD1
100
AcDbEntity
  8
0
  6
BYBLOCK
 62
     0
100
AcDbLine
 10
160.883027
 20
68.941365
 30
0.0
 11
161.5112
 21
70.840154
 31
0.0
  0
MTEXT
  5
1BD2
100
AcDbEntity
  8
0
  6
BYBLOCK
 62
     7
100
AcDbMText
 10
152.704639
 20
52.180017
 30
0.0
 40
3.0
 41
0.0
 71
     5
 72
     1
  1
\A1;i
  7
ROMANS
 11
0.314087
 21
0.949394
 31
0.0
  0
LINE
  5
1BD3
100
AcDbEntity
  8
0
  6
BYBLOCK
 62
     0
100
AcDbLine
 10
160.254854
 20
67.042576
 30
0.0
 11
159.595272
 21
65.048848
 31
0.0
  0
SOLID
  5
1BD4
100
AcDbEntity
  8
0
  6
BYBLOCK
 62
     0
100
AcDbTrace
 10
160.566562
 20
69.046061
 30
0.0
 11
161.199492
 21
68.83667
 31
0.0
 12
160.254854
 22
67.042576
 32
0.0
 13
160.254854
 23
67.042576
 33
0.0
  0
SOLID
  5
1BD5
100
AcDbEntity
  8
0
  6
BYBLOCK
 62
     0
100
AcDbTrace
 10
158.650634
 20
63.254755
 30
0.0
 11
159.283564
 21
63.045364
 31
0.0
 12
159.595272
 22
65.048848
 32
0.0
 13
159.595272
 23
65.048848
 33
0.0
  0
POINT
  5
1BD6
100
AcDbEntity
  8
DEFPOINTS
  6
BYBLOCK
 62
     0
100
AcDbPoint
 10
159.595272
 20
65.048848
 30
0.0
  0
POINT
  5
1BD7
100
AcDbEntity
  8
DEFPOINTS
  6
BYBLOCK
 62
     0
100
AcDbPoint
 10
160.254854
 20
67.042576
 30
0.0
  0
ENDBLK
  5
1BD8
100
AcDbEntity
  8
0
100
AcDbBlockEnd
  0
BLOCK
  5
1BD9
100
AcDbEntity
  8
0
100
AcDbBlockBegin
  2
*D66
 70
     1
 10
0.0
 20
0.0
 30
0.0
  3
*D66
  1

  0
LINE
  5
1BDA
100
AcDbEntity
  8
0
  6
BYBLOCK
 62
     0
100
AcDbLine
 10
152.459155
 20
66.045712
 30
0.0
 11
148.710525
 21
66.045712
 31
0.0
  0
LINE
  5
1BDB
100
AcDbEntity
  8
0
  6
BYBLOCK
 62
     0
100
AcDbLine
 10
152.882375
 20
81.795712
 30
0.0
 11
148.710525
 21
81.795712
 31
0.0
  0
LINE
  5
1BDC
100
AcDbEntity
  8
0
  6
BYBLOCK
 62
     0
100
AcDbLine
 10
149.710525
 20
68.045712
 30
0.0
 11
149.710525
 21
79.795712
 31
0.0
  0
SOLID
  5
1BDD
100
AcDbEntity
  8
0
  6
BYBLOCK
 62
     0
100
AcDbTrace
 10
149.377192
 20
68.045712
 30
0.0
 11
150.043859
 21
68.045712
 31
0.0
 12
149.710525
 22
66.045712
 32
0.0
 13
149.710525
 23
66.045712
 33
0.0
  0
SOLID
  5
1BDE
100
AcDbEntity
  8
0
  6
BYBLOCK
 62
     0
100
AcDbTrace
 10
149.377192
 20
79.795712
 30
0.0
 11
150.043859
 21
79.795712
 31
0.0
 12
149.710525
 22
81.795712
 32
0.0
 13
149.710525
 23
81.795712
 33
0.0
  0
MTEXT
  5
1BDF
100
AcDbEntity
  8
0
  6
BYBLOCK
 62
     7
100
AcDbMText
 10
147.210525
 20
73.920712
 30
0.0
 40
3.0
 41
0.0
 71
     5
 72
     1
  1
\A1;a
  7
ROMANS
 11
0.0
 21
1.0
 31
0.0
  0
POINT
  5
1BE0
100
AcDbEntity
  8
DEFPOINTS
  6
BYBLOCK
 62
     0
100
AcDbPoint
 10
153.459155
 20
66.045712
 30
0.0
  0
POINT
  5
1BE1
100
AcDbEntity
  8
DEFPOINTS
  6
BYBLOCK
 62
     0
100
AcDbPoint
 10
153.882375
 20
81.795712
 30
0.0
  0
POINT
  5
1BE2
100
AcDbEntity
  8
DEFPOINTS
  6
BYBLOCK
 62
     0
100
AcDbPoint
 10
149.710525
 20
81.795712
 30
0.0
  0
ENDBLK
  5
1BE3
100
AcDbEntity
  8
0
100
AcDbBlockEnd
  0
BLOCK
  5
1BE4
100
AcDbEntity
  8
0
100
AcDbBlockBegin
  2
*D67
 70
     1
 10
0.0
 20
0.0
 30
0.0
  3
*D67
  1

  0
LINE
  5
1BE5
100
AcDbEntity
  8
0
  6
BYBLOCK
 62
     0
100
AcDbLine
 10
171.250063
 20
58.870712
 30
0.0
 11
188.373125
 21
58.870712
 31
0.0
  0
LINE
  5
1BE6
100
AcDbEntity
  8
0
  6
BYBLOCK
 62
     0
100
AcDbLine
 10
170.550063
 20
50.120712
 30
0.0
 11
188.373125
 21
50.120712
 31
0.0
  0
LINE
  5
1BE7
100
AcDbEntity
  8
0
  6
BYBLOCK
 62
     0
100
AcDbLine
 10
187.373125
 20
56.870712
 30
0.0
 11
187.373125
 21
52.120712
 31
0.0
  0
SOLID
  5
1BE8
100
AcDbEntity
  8
0
  6
BYBLOCK
 62
     0
100
AcDbTrace
 10
187.039792
 20
56.870712
 30
0.0
 11
187.706459
 21
56.870712
 31
0.0
 12
187.373125
 22
58.870712
 32
0.0
 13
187.373125
 23
58.870712
 33
0.0
  0
SOLID
  5
1BE9
100
AcDbEntity
  8
0
  6
BYBLOCK
 62
     0
100
AcDbTrace
 10
187.039792
 20
52.120712
 30
0.0
 11
187.706459
 21
52.120712
 31
0.0
 12
187.373125
 22
50.120712
 32
0.0
 13
187.373125
 23
50.120712
 33
0.0
  0
MTEXT
  5
1BEA
100
AcDbEntity
  8
0
  6
BYBLOCK
 62
     7
100
AcDbMText
 10
184.873125
 20
54.495712
 30
0.0
 40
3.0
 41
0.0
 71
     5
 72
     1
  1
\A1;G
  7
ROMANS
 11
0.0
 21
1.0
 31
0.0
  0
POINT
  5
1BEB
100
AcDbEntity
  8
DEFPOINTS
  6
BYBLOCK
 62
     0
100
AcDbPoint
 10
170.250063
 20
58.870712
 30
0.0
  0
POINT
  5
1BEC
100
AcDbEntity
  8
DEFPOINTS
  6
BYBLOCK
 62
     0
100
AcDbPoint
 10
169.550063
 20
50.120712
 30
0.0
  0
POINT
  5
1BED
100
AcDbEntity
  8
DEFPOINTS
  6
BYBLOCK
 62
     0
100
AcDbPoint
 10
187.373125
 20
50.120712
 30
0.0
  0
ENDBLK
  5
1BEE
100
AcDbEntity
  8
0
100
AcDbBlockEnd
  0
BLOCK
  5
1BEF
100
AcDbEntity
  8
0
100
AcDbBlockBegin
  2
*D68
 70
     1
 10
0.0
 20
0.0
 30
0.0
  3
*D68
  1

  0
LINE
  5
1BF0
100
AcDbEntity
  8
0
  6
BYBLOCK
 62
     0
100
AcDbLine
 10
165.700063
 20
98.370712
 30
0.0
 11
165.700063
 21
104.4365
 31
0.0
  0
LINE
  5
1BF1
100
AcDbEntity
  8
0
  6
BYBLOCK
 62
     0
100
AcDbLine
 10
169.900063
 20
98.370712
 30
0.0
 11
169.900063
 21
104.4365
 31
0.0
  0
LINE
  5
1BF2
100
AcDbEntity
  8
0
  6
BYBLOCK
 62
     0
100
AcDbLine
 10
163.700063
 20
103.4365
 30
0.0
 11
161.700063
 21
103.4365
 31
0.0
  0
LINE
  5
1BF3
100
AcDbEntity
  8
0
  6
BYBLOCK
 62
     0
100
AcDbLine
 10
171.900063
 20
103.4365
 30
0.0
 11
185.04292
 21
103.4365
 31
0.0
  0
LINE
  5
1BF4
100
AcDbEntity
  8
0
  6
BYBLOCK
 62
     0
100
AcDbLine
 10
165.700063
 20
103.4365
 30
0.0
 11
169.900063
 21
103.4365
 31
0.0
  0
SOLID
  5
1BF5
100
AcDbEntity
  8
0
  6
BYBLOCK
 62
     0
100
AcDbTrace
 10
163.700063
 20
103.769834
 30
0.0
 11
163.700063
 21
103.103167
 31
0.0
 12
165.700063
 22
103.4365
 32
0.0
 13
165.700063
 23
103.4365
 33
0.0
  0
SOLID
  5
1BF6
100
AcDbEntity
  8
0
  6
BYBLOCK
 62
     0
100
AcDbTrace
 10
171.900063
 20
103.769834
 30
0.0
 11
171.900063
 21
103.103167
 31
0.0
 12
169.900063
 22
103.4365
 32
0.0
 13
169.900063
 23
103.4365
 33
0.0
  0
MTEXT
  5
1BF7
100
AcDbEntity
  8
0
  6
BYBLOCK
 62
     7
100
AcDbMText
 10
179.471491
 20
105.9365
 30
0.0
 40
3.0
 41
0.0
 71
     5
 72
     1
  1
\A1;\U+2205df8
  7
ROMANS
  0
POINT
  5
1BF8
100
AcDbEntity
  8
DEFPOINTS
  6
BYBLOCK
 62
     0
100
AcDbPoint
 10
165.700063
 20
97.370712
 30
0.0
  0
POINT
  5
1BF9
100
AcDbEntity
  8
DEFPOINTS
  6
BYBLOCK
 62
     0
100
AcDbPoint
 10
169.900063
 20
97.370712
 30
0.0
  0
POINT
  5
1BFA
100
AcDbEntity
  8
DEFPOINTS
  6
BYBLOCK
 62
     0
100
AcDbPoint
 10
169.900063
 20
103.4365
 30
0.0
  0
ENDBLK
  5
1BFB
100
AcDbEntity
  8
0
100
AcDbBlockEnd
  0
BLOCK
  5
1BFC
100
AcDbEntity
  8
0
100
AcDbBlockBegin
  2
*D69
 70
     1
 10
0.0
 20
0.0
 30
0.0
  3
*D69
  1

  0
LINE
  5
1BFD
100
AcDbEntity
  8
0
  6
BYBLOCK
 62
     0
100
AcDbLine
 10
171.250063
 20
88.970712
 30
0.0
 11
188.373125
 21
88.970712
 31
0.0
  0
LINE
  5
1BFE
100
AcDbEntity
  8
0
  6
BYBLOCK
 62
     0
100
AcDbLine
 10
170.550063
 20
97.720712
 30
0.0
 11
188.373125
 21
97.720712
 31
0.0
  0
LINE
  5
1BFF
100
AcDbEntity
  8
0
  6
BYBLOCK
 62
     0
100
AcDbLine
 10
187.373125
 20
90.970712
 30
0.0
 11
187.373125
 21
95.720712
 31
0.0
  0
SOLID
  5
1C00
100
AcDbEntity
  8
0
  6
BYBLOCK
 62
     0
100
AcDbTrace
 10
187.039792
 20
90.970712
 30
0.0
 11
187.706459
 21
90.970712
 31
0.0
 12
187.373125
 22
88.970712
 32
0.0
 13
187.373125
 23
88.970712
 33
0.0
  0
SOLID
  5
1C01
100
AcDbEntity
  8
0
  6
BYBLOCK
 62
     0
100
AcDbTrace
 10
187.039792
 20
95.720712
 30
0.0
 11
187.706459
 21
95.720712
 31
0.0
 12
187.373125
 22
97.720712
 32
0.0
 13
187.373125
 23
97.720712
 33
0.0
  0
MTEXT
  5
1C02
100
AcDbEntity
  8
0
  6
BYBLOCK
 62
     7
100
AcDbMText
 10
184.873125
 20
93.345712
 30
0.0
 40
3.0
 41
0.0
 71
     5
 72
     1
  1
\A1;G
  7
ROMANS
 11
0.0
 21
1.0
 31
0.0
  0
POINT
  5
1C03
100
AcDbEntity
  8
DEFPOINTS
  6
BYBLOCK
 62
     0
100
AcDbPoint
 10
170.250063
 20
88.970712
 30
0.0
  0
POINT
  5
1C04
100
AcDbEntity
  8
DEFPOINTS
  6
BYBLOCK
 62
     0
100
AcDbPoint
 10
169.550063
 20
97.720712
 30
0.0
  0
POINT
  5
1C05
100
AcDbEntity
  8
DEFPOINTS
  6
BYBLOCK
 62
     0
100
AcDbPoint
 10
187.373125
 20
97.720712
 30
0.0
  0
ENDBLK
  5
1C06
100
AcDbEntity
  8
0
100
AcDbBlockEnd
  0
ENDSEC
  0
SECTION
  2
ENTITIES
  0
LINE
  5
1910
100
AcDbEntity
  8
0
100
AcDbLine
 10
107.630055
 20
66.920712
 30
0.0
 11
56.880055
 21
66.920712
 31
0.0
  0
LINE
  5
1911
100
AcDbEntity
  8
0
100
AcDbLine
 10
56.880055
 20
80.920712
 30
0.0
 11
107.630055
 21
80.920712
 31
0.0
  0
LINE
  5
1912
100
AcDbEntity
  8
0
100
AcDbLine
 10
107.630055
 20
14.664235
 30
0.0
 11
56.880055
 21
14.664235
 31
0.0
  0
LINE
  5
1913
100
AcDbEntity
  8
0
100
AcDbLine
 10
56.880055
 20
28.664235
 30
0.0
 11
107.630055
 21
28.664235
 31
0.0
  0
DIMENSION
  5
1914
100
AcDbEntity
  8
COTAS
100
AcDbDimension
  2
*D47
 10
56.880055
 20
1.0
 30
0.0
 11
82.255055
 21
3.5
 31
0.0
 70
    32
  1
L
  3
NIASA
100
AcDbAlignedDimension
 13
107.630055
 23
14.664235
 33
0.0
 14
56.880055
 24
14.139235
 34
0.0
100
AcDbRotatedDimension
1001
ACAD
1000
DSTYLE
1002
{
1070
    78
1070
     8
1070
   284
1070
     8
1070
   140
1040
2.5
1070
   146
1040
0.8
1070
    77
1070
     3
1070
   147
1040
1.0
1070
   287
1070
     3
1070
    42
1040
1.0
1070
    44
1040
1.0
1070
   178
1070
     7
1070
    41
1040
2.0
1002
}
  0
LINE
  5
1915
100
AcDbEntity
  8
EJES
100
AcDbLine
 10
12.955055
 20
21.664235
 30
0.0
 11
117.8354
 21
21.664235
 31
0.0
  0
LINE
  5
1916
100
AcDbEntity
  8
EJES
100
AcDbLine
 10
23.105055
 20
73.920712
 30
0.0
 11
82.873015
 21
73.920712
 31
0.0
  0
LINE
  5
1917
100
AcDbEntity
  8
EJES
100
AcDbLine
 10
16.280055
 20
83.895712
 30
0.0
 11
16.280055
 21
79.695712
 31
0.0
  0
LINE
  5
1918
100
AcDbEntity
  8
EJES
100
AcDbLine
 10
32.030055
 20
83.895712
 30
0.0
 11
32.030055
 21
79.695712
 31
0.0
  0
LINE
  5
1919
100
AcDbEntity
  8
0
  6
HIDDEN2
 62
     7
100
AcDbLine
 10
35.530055
 20
78.632732
 30
0.0
 11
35.530055
 21
87.045712
 31
0.0
  0
LINE
  5
191A
100
AcDbEntity
  8
0
  6
CONTINUOUS
 62
     7
100
AcDbLine
 10
35.530055
 20
78.632732
 30
0.0
 11
35.530055
 21
88.620712
 31
0.0
  0
LINE
  5
191B
100
AcDbEntity
  8
EJES
100
AcDbLine
 10
33.435832
 20
82.844959
 30
0.0
 11
33.435832
 21
89.670712
 31
0.0
  0
LINE
  5
191C
100
AcDbEntity
  8
0
  6
CONTINUOUS
 62
     7
100
AcDbLine
 10
39.730055
 20
60.795712
 30
0.0
 11
39.730055
 21
87.045712
 31
0.0
  0
LINE
  5
191D
100
AcDbEntity
  8
EJES
100
AcDbLine
 10
14.874279
 20
82.844959
 30
0.0
 11
14.874279
 21
89.670712
 31
0.0
  0
LINE
  5
191E
100
AcDbEntity
  8
0
  6
CONTINUOUS
 62
     7
100
AcDbLine
 10
12.780055
 20
88.620712
 30
0.0
 11
12.780055
 21
59.220712
 31
0.0
  0
LINE
  5
191F
100
AcDbEntity
  8
EJES
100
AcDbLine
 10
24.155055
 20
98.770712
 30
0.0
 11
24.155055
 21
49.070712
 31
0.0
  0
DIMENSION
  5
1920
100
AcDbEntity
  8
COTAS
100
AcDbDimension
  2
*D48
 10
4.0639
 20
81.795712
 30
0.0
 11
1.5639
 21
73.920712
 31
0.0
 70
    32
  1
a
  3
NIASA
100
AcDbAlignedDimension
 13
11.730055
 23
66.045712
 33
0.0
 14
11.730055
 24
81.795712
 34
0.0
 50
270.0
100
AcDbRotatedDimension
1001
ACAD
1000
DSTYLE
1002
{
1070
    78
1070
     8
1070
   284
1070
     8
1070
   140
1040
2.5
1070
   146
1040
0.8
1070
    77
1070
     3
1070
   147
1040
1.0
1070
   287
1070
     3
1070
    42
1040
1.0
1070
    44
1040
1.0
1070
   178
1070
     7
1070
    41
1040
2.0
1002
}
  0
DIMENSION
  5
1921
100
AcDbEntity
  8
COTAS
100
AcDbDimension
  2
*D49
 10
4.0
 20
33.914235
 30
0.0
 11
1.5
 21
21.664235
 31
0.0
 70
    32
  1
B
  3
NIASA
100
AcDbAlignedDimension
 13
12.780055
 23
9.414235
 33
0.0
 14
12.780055
 24
33.914235
 34
0.0
 50
270.0
100
AcDbRotatedDimension
1001
ACAD
1000
DSTYLE
1002
{
1070
    78
1070
     8
1070
   284
1070
     8
1070
   140
1040
2.5
1070
   146
1040
0.8
1070
    77
1070
     3
1070
   147
1040
1.0
1070
   287
1070
     3
1070
    42
1040
1.0
1070
    44
1040
1.0
1070
   178
1070
     7
1070
    41
1040
2.0
1002
}
  0
DIMENSION
  5
1922
100
AcDbEntity
  8
COTAS
100
AcDbDimension
  2
*D50
 10
17.46096
 20
10.374651
 30
0.0
 11
34.419335
 21
38.974931
 31
0.0
 70
   163
  1
b
  3
NIASA
100
AcDbDiametricDimension
 15
30.849151
 25
32.953819
 35
0.0
 40
0.0
1001
ACAD
1000
DSTYLE
1002
{
1070
    78
1070
     8
1070
   284
1070
     8
1070
   140
1040
2.5
1070
   146
1040
0.8
1070
    77
1070
     3
1070
   147
1040
1.0
1070
   287
1070
     3
1070
    42
1040
1.0
1070
    44
1040
1.0
1070
   178
1070
     7
1070
    41
1040
2.0
1002
}
  0
DIMENSION
  5
1923
100
AcDbEntity
  8
COTAS
100
AcDbDimension
  2
*D51
 10
28.739677
 20
12.608643
 30
0.0
 11
14.634143
 21
40.470043
 31
0.0
 70
   163
  1
D
  3
NIASA
100
AcDbDiametricDimension
 15
19.570434
 25
30.719827
 35
0.0
 40
0.0
1001
ACAD
1000
DSTYLE
1002
{
1070
    78
1070
     8
1070
   284
1070
     8
1070
   140
1040
2.5
1070
   146
1040
0.8
1070
    77
1070
     3
1070
   147
1040
1.0
1070
   287
1070
     3
1070
    42
1040
1.0
1070
    44
1040
1.0
1070
   178
1070
     7
1070
    41
1040
2.0
1002
}
  0
LINE
  5
1924
100
AcDbEntity
  8
0
  6
CONTINUOUS
 62
     7
100
AcDbLine
 10
39.730055
 20
33.914235
 30
0.0
 11
12.780055
 21
33.914235
 31
0.0
  0
LINE
  5
1925
100
AcDbEntity
  8
0
  6
CONTINUOUS
 62
     7
100
AcDbLine
 10
39.730055
 20
9.414235
 30
0.0
 11
12.780055
 21
9.414235
 31
0.0
  0
DIMENSION
  5
1926
100
AcDbEntity
  8
COTAS
100
AcDbDimension
  2
*D52
 10
35.530055
 20
1.0
 30
0.0
 11
46.205055
 21
3.5
 31
0.0
 70
    32
  1
L2
  3
NIASA
100
AcDbAlignedDimension
 13
56.880055
 23
14.139235
 33
0.0
 14
35.530055
 24
9.414235
 34
0.0
100
AcDbRotatedDimension
1001
ACAD
1000
DSTYLE
1002
{
1070
    78
1070
     8
1070
   284
1070
     8
1070
   140
1040
2.5
1070
   146
1040
0.8
1070
    77
1070
     3
1070
   147
1040
1.0
1070
   287
1070
     3
1070
    42
1040
1.0
1070
    44
1040
1.0
1070
   178
1070
     7
1070
    41
1040
2.0
1002
}
  0
ARC
  5
1927
100
AcDbEntity
  8
EJES
100
AcDbCircle
 10
24.155055
 20
21.664235
 30
0.0
 40
13.125
100
AcDbArc
 50
305.822869
 51
324.177131
  0
LINE
  5
1928
100
AcDbEntity
  8
EJES
100
AcDbLine
 10
31.950908
 20
13.868383
 30
0.0
 11
34.920756
 21
10.898534
 31
0.0
  0
ARC
  5
1929
100
AcDbEntity
  8
0
  6
CONTINUOUS
 62
     1
100
AcDbCircle
 10
33.435832
 20
12.383459
 30
0.0
 40
1.05
100
AcDbArc
 50
165.0
 51
105.0
  0
ARC
  5
192A
100
AcDbEntity
  8
EJES
100
AcDbCircle
 10
24.155055
 20
21.664235
 30
0.0
 40
13.125
100
AcDbArc
 50
215.822869
 51
234.177131
  0
ARC
  5
192B
100
AcDbEntity
  8
0
  6
CONTINUOUS
 62
     1
100
AcDbCircle
 10
14.874279
 20
12.383459
 30
0.0
 40
1.05
100
AcDbArc
 50
165.0
 51
105.0
  0
LINE
  5
192C
100
AcDbEntity
  8
EJES
100
AcDbLine
 10
16.359203
 20
13.868383
 30
0.0
 11
13.389355
 21
10.898534
 31
0.0
  0
CIRCLE
  5
192D
100
AcDbEntity
  8
0
100
AcDbCircle
 10
24.155055
 20
21.664235
 30
0.0
 40
10.15
  0
LINE
  5
192E
100
AcDbEntity
  8
0
  6
CONTINUOUS
 62
     7
100
AcDbLine
 10
35.530055
 20
33.914235
 30
0.0
 11
35.530055
 21
9.414235
 31
0.0
  0
LINE
  5
192F
100
AcDbEntity
  8
0
  6
CONTINUOUS
 62
     7
100
AcDbLine
 10
12.780055
 20
33.914235
 30
0.0
 11
12.780055
 21
9.414235
 31
0.0
  0
LINE
  5
1930
100
AcDbEntity
  8
EJES
100
AcDbLine
 10
24.155055
 20
34.964235
 30
0.0
 11
24.155055
 21
8.364235
 31
0.0
  0
DIMENSION
  5
1931
100
AcDbEntity
  8
COTAS
100
AcDbDimension
  2
*D53
 10
12.780055
 20
1.0
 30
0.0
 11
24.155055
 21
3.5
 31
0.0
 70
    32
  1
A
  3
NIASA
100
AcDbAlignedDimension
 13
35.530055
 23
9.414235
 33
0.0
 14
12.780055
 24
9.414235
 34
0.0
100
AcDbRotatedDimension
1001
ACAD
1000
DSTYLE
1002
{
1070
    78
1070
     8
1070
   284
1070
     8
1070
   140
1040
2.5
1070
   146
1040
0.8
1070
    77
1070
     3
1070
   147
1040
1.0
1070
   287
1070
     3
1070
    42
1040
1.0
1070
    44
1040
1.0
1070
   178
1070
     7
1070
    41
1040
2.0
1002
}
  0
CIRCLE
  5
1932
100
AcDbEntity
  8
0
  6
CONTINUOUS
 62
     7
100
AcDbCircle
 10
14.874279
 20
12.383459
 30
0.0
 40
0.875
  0
CIRCLE
  5
1933
100
AcDbEntity
  8
0
  6
CONTINUOUS
 62
     7
100
AcDbCircle
 10
33.435832
 20
12.383459
 30
0.0
 40
0.875
  0
CIRCLE
  5
1934
100
AcDbEntity
  8
0
  6
CONTINUOUS
 62
     7
100
AcDbCircle
 10
14.874279
 20
30.945012
 30
0.0
 40
0.875
  0
ARC
  5
1935
100
AcDbEntity
  8
0
  6
CONTINUOUS
 62
     1
100
AcDbCircle
 10
14.874279
 20
30.945012
 30
0.0
 40
1.05
100
AcDbArc
 50
165.0
 51
105.0
  0
ARC
  5
1936
100
AcDbEntity
  8
EJES
100
AcDbCircle
 10
24.155055
 20
21.664235
 30
0.0
 40
13.125
100
AcDbArc
 50
125.822869
 51
144.177131
  0
LINE
  5
1937
100
AcDbEntity
  8
EJES
100
AcDbLine
 10
16.359203
 20
29.460087
 30
0.0
 11
13.389355
 21
32.429936
 31
0.0
  0
CIRCLE
  5
1938
100
AcDbEntity
  8
0
  6
CONTINUOUS
 62
     7
100
AcDbCircle
 10
24.155055
 20
21.664235
 30
0.0
 40
4.2
  0
CIRCLE
  5
1939
100
AcDbEntity
  8
0
  6
CONTINUOUS
 62
     7
100
AcDbCircle
 10
24.155055
 20
21.664235
 30
0.0
 40
4.2
  0
CIRCLE
  5
193A
100
AcDbEntity
  8
0
  6
CONTINUOUS
 62
     7
100
AcDbCircle
 10
24.155055
 20
21.664235
 30
0.0
 40
1.75
  0
CIRCLE
  5
193B
100
AcDbEntity
  8
0
  6
CONTINUOUS
 62
     7
100
AcDbCircle
 10
24.155055
 20
21.664235
 30
0.0
 40
2.1
  0
ARC
  5
193C
100
AcDbEntity
  8
0
100
AcDbCircle
 10
24.155055
 20
21.664235
 30
0.0
 40
2.45
100
AcDbArc
 50
16.60155
 51
343.39845
  0
LINE
  5
193D
100
AcDbEntity
  8
0
100
AcDbLine
 10
26.780055
 20
22.364235
 30
0.0
 11
26.780055
 21
20.964235
 31
0.0
  0
LINE
  5
193E
100
AcDbEntity
  8
0
100
AcDbLine
 10
26.134954
 20
22.364235
 30
0.0
 11
26.780055
 21
22.364235
 31
0.0
  0
LINE
  5
193F
100
AcDbEntity
  8
0
100
AcDbLine
 10
26.134954
 20
20.964235
 30
0.0
 11
26.780055
 21
20.964235
 31
0.0
  0
LINE
  5
1940
100
AcDbEntity
  8
EJES
100
AcDbLine
 10
31.950908
 20
29.460087
 30
0.0
 11
34.920756
 21
32.429936
 31
0.0
  0
CIRCLE
  5
1941
100
AcDbEntity
  8
0
  6
CONTINUOUS
 62
     7
100
AcDbCircle
 10
33.435832
 20
30.945012
 30
0.0
 40
0.875
  0
ARC
  5
1942
100
AcDbEntity
  8
0
  6
CONTINUOUS
 62
     1
100
AcDbCircle
 10
33.435832
 20
30.945012
 30
0.0
 40
1.05
100
AcDbArc
 50
165.0
 51
105.0
  0
ARC
  5
1943
100
AcDbEntity
  8
EJES
100
AcDbCircle
 10
24.155055
 20
21.664235
 30
0.0
 40
13.125
100
AcDbArc
 50
35.822869
 51
68.96053
  0
LINE
  5
1944
100
AcDbEntity
  8
0
  6
CONTINUOUS
 62
     7
100
AcDbLine
 10
39.730055
 20
9.414235
 30
0.0
 11
39.730055
 21
33.914235
 31
0.0
  0
LINE
  5
1945
100
AcDbEntity
  8
0
100
AcDbLine
 10
39.730055
 20
13.789235
 30
0.0
 11
56.530055
 21
13.789235
 31
0.0
  0
LINE
  5
1946
100
AcDbEntity
  8
0
100
AcDbLine
 10
56.530055
 20
29.539235
 30
0.0
 11
39.730055
 21
29.539235
 31
0.0
  0
LINE
  5
1947
100
AcDbEntity
  8
0
100
AcDbLine
 10
56.880055
 20
14.139235
 30
0.0
 11
56.880055
 21
29.189235
 31
0.0
  0
LINE
  5
1948
100
AcDbEntity
  8
0
100
AcDbLine
 10
56.530055
 20
13.789235
 30
0.0
 11
56.530055
 21
29.539235
 31
0.0
  0
LINE
  5
1949
100
AcDbEntity
  8
0
100
AcDbLine
 10
56.530055
 20
13.789235
 30
0.0
 11
56.880055
 21
14.139235
 31
0.0
  0
LINE
  5
194A
100
AcDbEntity
  8
0
100
AcDbLine
 10
56.880055
 20
29.189235
 30
0.0
 11
56.530055
 21
29.539235
 31
0.0
  0
LINE
  5
194B
100
AcDbEntity
  8
0
  6
CONTINUOUS
 62
     7
100
AcDbLine
 10
35.530055
 20
60.795712
 30
0.0
 11
39.730055
 21
60.795712
 31
0.0
  0
LINE
  5
194C
100
AcDbEntity
  8
EJES
100
AcDbLine
 10
14.874279
 20
64.996465
 30
0.0
 11
14.874279
 21
58.170712
 31
0.0
  0
LINE
  5
194D
100
AcDbEntity
  8
TRAZOS
100
AcDbLine
 10
34.305055
 20
59.220712
 30
0.0
 11
34.305055
 21
60.095712
 31
0.0
  0
LINE
  5
194E
100
AcDbEntity
  8
EJES
100
AcDbLine
 10
33.435832
 20
64.996465
 30
0.0
 11
33.435832
 21
58.170712
 31
0.0
  0
LINE
  5
194F
100
AcDbEntity
  8
0
  6
CONTINUOUS
 62
     7
100
AcDbLine
 10
35.530055
 20
59.220712
 30
0.0
 11
35.530055
 21
69.208693
 31
0.0
  0
DIMENSION
  5
1950
100
AcDbEntity
  8
COTAS
100
AcDbDimension
  2
*D54
 10
24.155055
 20
48.0324
 30
0.0
 11
7.280055
 21
48.0324
 31
0.0
 70
   160
  1
H
  3
NIASA
100
AcDbAlignedDimension
 13
12.780055
 23
59.220712
 33
0.0
 14
24.155055
 24
49.070712
 34
0.0
100
AcDbRotatedDimension
1001
ACAD
1000
DSTYLE
1002
{
1070
    78
1070
     8
1070
   284
1070
     8
1070
   140
1040
2.5
1070
   146
1040
0.8
1070
    77
1070
     3
1070
   147
1040
1.0
1070
   287
1070
     3
1070
    42
1040
1.0
1070
    44
1040
1.0
1070
   178
1070
     7
1070
    41
1040
2.0
1002
}
  0
LINE
  5
1951
100
AcDbEntity
  8
0
  6
CONTINUOUS
 62
     7
100
AcDbLine
 10
12.780055
 20
59.220712
 30
0.0
 11
35.530055
 21
59.220712
 31
0.0
  0
LINE
  5
1952
100
AcDbEntity
  8
0
  6
CONTINUOUS
 62
     7
100
AcDbLine
 10
26.780055
 20
58.170712
 30
0.0
 11
26.780055
 21
51.170712
 31
0.0
  0
LINE
  5
1953
100
AcDbEntity
  8
0
  6
CONTINUOUS
 62
     7
100
AcDbLine
 10
26.255055
 20
50.470712
 30
0.0
 11
26.255055
 21
58.870712
 31
0.0
  0
LINE
  5
1954
100
AcDbEntity
  8
0
  6
CONTINUOUS
 62
     7
100
AcDbLine
 10
22.055055
 20
58.870712
 30
0.0
 11
22.055055
 21
50.470712
 31
0.0
  0
LINE
  5
1955
100
AcDbEntity
  8
0
  6
CONTINUOUS
 62
     7
100
AcDbLine
 10
22.055055
 20
50.470712
 30
0.0
 11
26.255055
 21
50.470712
 31
0.0
  0
LINE
  5
1956
100
AcDbEntity
  8
0
  6
CONTINUOUS
 62
     7
100
AcDbLine
 10
25.905055
 20
50.120712
 30
0.0
 11
22.405055
 21
50.120712
 31
0.0
  0
LINE
  5
1957
100
AcDbEntity
  8
0
  6
CONTINUOUS
 62
     7
100
AcDbLine
 10
22.055055
 20
50.470712
 30
0.0
 11
22.405055
 21
50.120712
 31
0.0
  0
LINE
  5
1958
100
AcDbEntity
  8
0
  6
CONTINUOUS
 62
     7
100
AcDbLine
 10
25.905055
 20
50.120712
 30
0.0
 11
26.255055
 21
50.470712
 31
0.0
  0
LINE
  5
1959
100
AcDbEntity
  8
0
100
AcDbLine
 10
26.255055
 20
51.170712
 30
0.0
 11
26.780055
 21
51.170712
 31
0.0
  0
LINE
  5
195A
100
AcDbEntity
  8
0
  6
CONTINUOUS
 62
     7
100
AcDbLine
 10
26.605055
 20
58.870712
 30
0.0
 11
21.705055
 21
58.870712
 31
0.0
  0
LINE
  5
195B
100
AcDbEntity
  8
0
100
AcDbLine
 10
21.705055
 20
59.220712
 30
0.0
 11
21.705055
 21
58.870712
 31
0.0
  0
LINE
  5
195C
100
AcDbEntity
  8
0
100
AcDbLine
 10
26.605055
 20
59.220712
 30
0.0
 11
26.605055
 21
58.870712
 31
0.0
  0
LINE
  5
195D
100
AcDbEntity
  8
0
100
AcDbLine
 10
26.255055
 20
58.170712
 30
0.0
 11
26.780055
 21
58.170712
 31
0.0
  0
LINE
  5
195E
100
AcDbEntity
  8
TRAZOS
100
AcDbLine
 10
14.005055
 20
60.095712
 30
0.0
 11
34.305055
 21
60.095712
 31
0.0
  0
LINE
  5
195F
100
AcDbEntity
  8
EJES
100
AcDbLine
 10
18.380055
 20
66.045712
 30
0.0
 11
11.730055
 21
66.045712
 31
0.0
  0
ARC
  5
1960
100
AcDbEntity
  8
0
 62
     1
100
AcDbCircle
 10
16.280055
 20
66.045712
 30
0.0
 40
1.05
100
AcDbArc
 50
165.0
 51
105.0
  0
CIRCLE
  5
1961
100
AcDbEntity
  8
0
  6
CONTINUOUS
 62
     7
100
AcDbCircle
 10
16.280055
 20
66.045712
 30
0.0
 40
0.875
  0
LINE
  5
1962
100
AcDbEntity
  8
TRAZOS
 62
     1
100
AcDbLine
 10
16.630055
 20
67.095712
 30
0.0
 11
16.630055
 21
64.995712
 31
0.0
  0
LINE
  5
1963
100
AcDbEntity
  8
EJES
100
AcDbLine
 10
16.280055
 20
68.145712
 30
0.0
 11
16.280055
 21
63.945712
 31
0.0
  0
LINE
  5
1964
100
AcDbEntity
  8
EJES
100
AcDbLine
 10
18.380055
 20
81.795712
 30
0.0
 11
11.730055
 21
81.795712
 31
0.0
  0
ARC
  5
1965
100
AcDbEntity
  8
0
 62
     1
100
AcDbCircle
 10
16.280055
 20
81.795712
 30
0.0
 40
1.05
100
AcDbArc
 50
165.0
 51
105.0
  0
CIRCLE
  5
1966
100
AcDbEntity
  8
0
  6
CONTINUOUS
 62
     7
100
AcDbCircle
 10
16.280055
 20
81.795712
 30
0.0
 40
0.875
  0
LINE
  5
1967
100
AcDbEntity
  8
0
  6
CONTINUOUS
 62
     7
100
AcDbLine
 10
35.530055
 20
69.208693
 30
0.0
 11
35.530055
 21
78.632732
 31
0.0
  0
LINE
  5
1968
100
AcDbEntity
  8
0
  6
HIDDEN2
 62
     7
100
AcDbLine
 10
35.530055
 20
69.208693
 30
0.0
 11
35.530055
 21
78.632732
 31
0.0
  0
ARC
  5
1969
100
AcDbEntity
  8
0
 62
     1
100
AcDbCircle
 10
32.030055
 20
66.045712
 30
0.0
 40
1.05
100
AcDbArc
 50
165.0
 51
105.0
  0
CIRCLE
  5
196A
100
AcDbEntity
  8
0
  6
CONTINUOUS
 62
     7
100
AcDbCircle
 10
32.030055
 20
66.045712
 30
0.0
 40
0.875
  0
LINE
  5
196B
100
AcDbEntity
  8
0
  6
HIDDEN2
 62
     7
100
AcDbLine
 10
35.530055
 20
60.795712
 30
0.0
 11
35.530055
 21
69.208693
 31
0.0
  0
LINE
  5
196C
100
AcDbEntity
  8
EJES
100
AcDbLine
 10
32.030055
 20
68.145712
 30
0.0
 11
32.030055
 21
63.945712
 31
0.0
  0
LINE
  5
196D
100
AcDbEntity
  8
EJES
100
AcDbLine
 10
34.130055
 20
66.045712
 30
0.0
 11
29.930055
 21
66.045712
 31
0.0
  0
LINE
  5
196E
100
AcDbEntity
  8
EJES
100
AcDbLine
 10
34.130055
 20
81.795712
 30
0.0
 11
29.930055
 21
81.795712
 31
0.0
  0
ARC
  5
196F
100
AcDbEntity
  8
0
 62
     1
100
AcDbCircle
 10
32.030055
 20
81.795712
 30
0.0
 40
1.05
100
AcDbArc
 50
165.0
 51
105.0
  0
CIRCLE
  5
1970
100
AcDbEntity
  8
0
  6
CONTINUOUS
 62
     7
100
AcDbCircle
 10
32.030055
 20
81.795712
 30
0.0
 40
0.875
  0
LINE
  5
1971
100
AcDbEntity
  8
0
100
AcDbLine
 10
39.730055
 20
66.045712
 30
0.0
 11
56.530055
 21
66.045712
 31
0.0
  0
LINE
  5
1972
100
AcDbEntity
  8
0
100
AcDbLine
 10
56.530055
 20
81.795712
 30
0.0
 11
39.730055
 21
81.795712
 31
0.0
  0
LINE
  5
1973
100
AcDbEntity
  8
0
100
AcDbLine
 10
56.530055
 20
66.045712
 30
0.0
 11
56.530055
 21
81.795712
 31
0.0
  0
LINE
  5
1974
100
AcDbEntity
  8
0
100
AcDbLine
 10
56.880055
 20
81.445712
 30
0.0
 11
56.880055
 21
66.395712
 31
0.0
  0
LINE
  5
1975
100
AcDbEntity
  8
0
100
AcDbLine
 10
56.530055
 20
66.045712
 30
0.0
 11
56.880055
 21
66.395712
 31
0.0
  0
LINE
  5
1976
100
AcDbEntity
  8
0
100
AcDbLine
 10
56.880055
 20
81.445712
 30
0.0
 11
56.530055
 21
81.795712
 31
0.0
  0
DIMENSION
  5
1977
100
AcDbEntity
  8
COTAS
100
AcDbDimension
  2
*D55
 10
47.478325
 20
88.620712
 30
0.0
 11
44.478325
 21
94.477855
 31
0.0
 70
    32
  1
g
  3
NIASA
100
AcDbAlignedDimension
 13
34.305055
 23
87.745712
 33
0.0
 14
35.530055
 24
88.620712
 34
0.0
 50
90.0
100
AcDbRotatedDimension
1001
ACAD
1000
DSTYLE
1002
{
1070
    78
1070
     8
1070
   284
1070
     8
1070
   140
1040
2.5
1070
   146
1040
0.8
1070
    77
1070
     3
1070
   147
1040
1.0
1070
   287
1070
     3
1070
    42
1040
1.0
1070
    44
1040
1.0
1070
   178
1070
     7
1070
    41
1040
2.0
1002
}
  0
LINE
  5
1978
100
AcDbEntity
  8
0
  6
CONTINUOUS
 62
     7
100
AcDbLine
 10
39.730055
 20
87.045712
 30
0.0
 11
35.530055
 21
87.045712
 31
0.0
  0
DIMENSION
  5
1979
100
AcDbEntity
  8
COTAS
100
AcDbDimension
  2
*D56
 10
16.280055
 20
103.4365
 30
0.0
 11
24.155055
 21
105.9365
 31
0.0
 70
    32
  1
a
  3
NIASA
100
AcDbAlignedDimension
 13
32.030055
 23
83.895712
 33
0.0
 14
16.280055
 24
83.895712
 34
0.0
100
AcDbRotatedDimension
1001
ACAD
1000
DSTYLE
1002
{
1070
    78
1070
     8
1070
   284
1070
     8
1070
   140
1040
2.5
1070
   146
1040
0.8
1070
    77
1070
     3
1070
   147
1040
1.0
1070
   287
1070
     3
1070
    42
1040
1.0
1070
    44
1040
1.0
1070
   178
1070
     7
1070
    41
1040
2.0
1002
}
  0
LINE
  5
197A
100
AcDbEntity
  8
TRAZOS
100
AcDbLine
 10
34.305055
 20
87.745712
 30
0.0
 11
14.005055
 21
87.745712
 31
0.0
  0
LINE
  5
197B
100
AcDbEntity
  8
0
  6
CONTINUOUS
 62
     7
100
AcDbLine
 10
35.530055
 20
88.620712
 30
0.0
 11
12.780055
 21
88.620712
 31
0.0
  0
LINE
  5
197C
100
AcDbEntity
  8
TRAZOS
100
AcDbLine
 10
14.005055
 20
87.745712
 30
0.0
 11
14.005055
 21
88.620712
 31
0.0
  0
LINE
  5
197D
100
AcDbEntity
  8
0
  6
CONTINUOUS
 62
     7
100
AcDbLine
 10
22.055055
 20
97.370712
 30
0.0
 11
22.055055
 21
88.970712
 31
0.0
  0
LINE
  5
197E
100
AcDbEntity
  8
0
  6
CONTINUOUS
 62
     7
100
AcDbLine
 10
26.255055
 20
88.970712
 30
0.0
 11
26.255055
 21
97.370712
 31
0.0
  0
LINE
  5
197F
100
AcDbEntity
  8
0
  6
CONTINUOUS
 62
     7
100
AcDbLine
 10
26.780055
 20
89.670712
 30
0.0
 11
26.780055
 21
96.670712
 31
0.0
  0
LINE
  5
1980
100
AcDbEntity
  8
0
100
AcDbLine
 10
21.705055
 20
88.620712
 30
0.0
 11
21.705055
 21
88.970712
 31
0.0
  0
LINE
  5
1981
100
AcDbEntity
  8
0
100
AcDbLine
 10
26.605055
 20
88.620712
 30
0.0
 11
26.605055
 21
88.970712
 31
0.0
  0
LINE
  5
1982
100
AcDbEntity
  8
0
  6
CONTINUOUS
 62
     7
100
AcDbLine
 10
26.605055
 20
88.970712
 30
0.0
 11
21.705055
 21
88.970712
 31
0.0
  0
LINE
  5
1983
100
AcDbEntity
  8
0
100
AcDbLine
 10
26.255055
 20
89.670712
 30
0.0
 11
26.780055
 21
89.670712
 31
0.0
  0
LINE
  5
1984
100
AcDbEntity
  8
TRAZOS
100
AcDbLine
 10
34.305055
 20
87.745712
 30
0.0
 11
34.305055
 21
88.620712
 31
0.0
  0
LINE
  5
1985
100
AcDbEntity
  8
0
  6
CONTINUOUS
 62
     7
100
AcDbLine
 10
26.255055
 20
97.370712
 30
0.0
 11
22.055055
 21
97.370712
 31
0.0
  0
LINE
  5
1986
100
AcDbEntity
  8
0
  6
CONTINUOUS
 62
     7
100
AcDbLine
 10
22.405055
 20
97.720712
 30
0.0
 11
25.905055
 21
97.720712
 31
0.0
  0
LINE
  5
1987
100
AcDbEntity
  8
0
  6
CONTINUOUS
 62
     7
100
AcDbLine
 10
22.405055
 20
97.720712
 30
0.0
 11
22.055055
 21
97.370712
 31
0.0
  0
LINE
  5
1988
100
AcDbEntity
  8
0
  6
CONTINUOUS
 62
     7
100
AcDbLine
 10
26.255055
 20
97.370712
 30
0.0
 11
25.905055
 21
97.720712
 31
0.0
  0
LINE
  5
1989
100
AcDbEntity
  8
0
100
AcDbLine
 10
26.255055
 20
96.670712
 30
0.0
 11
26.780055
 21
96.670712
 31
0.0
  0
DIMENSION
  5
198A
100
AcDbEntity
  8
COTAS
100
AcDbDimension
  2
*D57
 10
114.980055
 20
90.808278
 30
0.0
 11
122.194341
 21
93.308278
 31
0.0
 70
    32
  1
L4
  3
NIASA
100
AcDbAlignedDimension
 13
110.4112
 23
79.2364
 33
0.0
 14
114.980055
 24
79.870712
 34
0.0
100
AcDbRotatedDimension
1001
ACAD
1000
DSTYLE
1002
{
1070
    78
1070
     8
1070
   284
1070
     8
1070
   140
1040
2.5
1070
   146
1040
0.8
1070
    77
1070
     3
1070
   147
1040
1.0
1070
   287
1070
     3
1070
    42
1040
1.0
1070
    44
1040
1.0
1070
   178
1070
     7
1070
    41
1040
2.0
1002
}
  0
DIMENSION
  5
198B
100
AcDbEntity
  8
COTAS
100
AcDbDimension
  2
*D58
 10
122.1407
 20
78.8305
 30
0.0
 11
122.1407
 21
73.920712
 31
0.0
 70
   160
  1
d1
  3
NIASA
100
AcDbAlignedDimension
 13
114.980055
 23
69.010925
 33
0.0
 14
114.89838
 24
78.8305
 34
0.0
 50
270.0
100
AcDbRotatedDimension
1001
ACAD
1000
DSTYLE
1002
{
1070
    78
1070
     8
1070
   284
1070
     8
1070
   140
1040
2.5
1070
   146
1040
0.8
1070
    77
1070
     3
1070
   147
1040
1.0
1070
   287
1070
     3
1070
    42
1040
1.0
1070
    44
1040
1.0
1070
   178
1070
     7
1070
    41
1040
2.0
1002
}
  0
DIMENSION
  5
198C
100
AcDbEntity
  8
COTAS
100
AcDbDimension
  2
*D59
 10
141.938625
 20
88.620712
 30
0.0
 11
139.438625
 21
73.920712
 31
0.0
 70
    32
  1
C
  3
NIASA
100
AcDbAlignedDimension
 13
155.550063
 23
59.220712
 33
0.0
 14
155.550063
 24
88.620712
 34
0.0
 50
90.0
100
AcDbRotatedDimension
1001
ACAD
1000
DSTYLE
1002
{
1070
    78
1070
     8
1070
   284
1070
     8
1070
   140
1040
2.5
1070
   146
1040
0.8
1070
    77
1070
     3
1070
   147
1040
1.0
1070
   287
1070
     3
1070
    42
1040
1.0
1070
    44
1040
1.0
1070
   178
1070
     7
1070
    41
1040
2.0
1002
}
  0
DIMENSION
  5
198D
100
AcDbEntity
  8
COTAS
100
AcDbDimension
  2
*D60
 10
187.373125
 20
88.970712
 30
0.0
 11
184.873125
 21
73.920712
 31
0.0
 70
    32
  1
F
  3
NIASA
100
AcDbAlignedDimension
 13
170.250063
 23
58.870712
 33
0.0
 14
170.250063
 24
88.970712
 34
0.0
 50
90.0
100
AcDbRotatedDimension
1001
ACAD
1000
DSTYLE
1002
{
1070
    78
1070
     8
1070
   284
1070
     8
1070
   140
1040
2.5
1070
   146
1040
0.8
1070
    77
1070
     3
1070
   147
1040
1.0
1070
   287
1070
     3
1070
    42
1040
1.0
1070
    44
1040
1.0
1070
   178
1070
     7
1070
    41
1040
2.0
1002
}
  0
LINE
  5
198E
100
AcDbEntity
  8
EJES
100
AcDbLine
 10
175.675063
 20
78.795712
 30
0.0
 11
175.675063
 21
84.795712
 31
0.0
  0
LINE
  5
198F
100
AcDbEntity
  8
EJES
100
AcDbLine
 10
159.925063
 20
78.795712
 30
0.0
 11
159.925063
 21
84.795712
 31
0.0
  0
LINE
  5
1990
100
AcDbEntity
  8
EJES
100
AcDbLine
 10
158.519813
 20
82.844959
 30
0.0
 11
158.519813
 21
89.670712
 31
0.0
  0
LINE
  5
1991
100
AcDbEntity
  8
EJES
100
AcDbLine
 10
177.080313
 20
82.844959
 30
0.0
 11
177.080313
 21
89.670712
 31
0.0
  0
LINE
  5
1992
100
AcDbEntity
  8
0
  6
CONTINUOUS
 62
     7
100
AcDbLine
 10
155.550063
 20
78.632732
 30
0.0
 11
155.550063
 21
88.620712
 31
0.0
  0
LINE
  5
1993
100
AcDbEntity
  8
0
  6
CONTINUOUS
 62
     7
100
AcDbLine
 10
180.050063
 20
78.632732
 30
0.0
 11
180.050063
 21
88.620712
 31
0.0
  0
LINE
  5
1994
100
AcDbEntity
  8
EJES
100
AcDbLine
 10
167.800063
 20
98.770712
 30
0.0
 11
167.800063
 21
49.070712
 31
0.0
  0
DIMENSION
  5
1995
100
AcDbEntity
  8
COTAS
100
AcDbDimension
  2
*D61
 10
107.630055
 20
1.0
 30
0.0
 11
126.974425
 21
1.0
 31
0.0
 70
   160
  1
L3 mín
  3
NIASA
100
AcDbAlignedDimension
 13
114.980055
 23
15.714235
 33
0.0
 14
107.630055
 24
14.664235
 34
0.0
100
AcDbRotatedDimension
1001
ACAD
1000
DSTYLE
1002
{
1070
    78
1070
     8
1070
   284
1070
     8
1070
   140
1040
2.5
1070
   146
1040
0.8
1070
    77
1070
     3
1070
   147
1040
1.0
1070
   287
1070
     3
1070
    42
1040
1.0
1070
    44
1040
1.0
1070
   178
1070
     7
1070
    41
1040
2.0
1002
}
  0
LINE
  5
1996
100
AcDbEntity
  8
0
100
AcDbLine
 10
107.630055
 20
27.264235
 30
0.0
 11
107.630055
 21
16.064235
 31
0.0
  0
LINE
  5
1997
100
AcDbEntity
  8
0
100
AcDbLine
 10
114.980055
 20
27.614235
 30
0.0
 11
114.980055
 21
15.714235
 31
0.0
  0
LINE
  5
1998
100
AcDbEntity
  8
0
100
AcDbLine
 10
114.980055
 20
15.714235
 30
0.0
 11
107.630055
 21
15.714235
 31
0.0
  0
LINE
  5
1999
100
AcDbEntity
  8
0
100
AcDbLine
 10
107.630055
 20
14.664235
 30
0.0
 11
107.630055
 21
16.064235
 31
0.0
  0
LINE
  5
199A
100
AcDbEntity
  8
0
100
AcDbLine
 10
114.980055
 20
27.614235
 30
0.0
 11
107.630055
 21
27.614235
 31
0.0
  0
LINE
  5
199B
100
AcDbEntity
  8
0
100
AcDbLine
 10
107.630055
 20
27.264235
 30
0.0
 11
107.630055
 21
28.664235
 31
0.0
  0
LINE
  5
199C
100
AcDbEntity
  8
EJES
100
AcDbLine
 10
88.940115
 20
73.920712
 30
0.0
 11
117.1061
 21
73.920712
 31
0.0
  0
DIMENSION
  5
199D
100
AcDbEntity
  8
COTAS
100
AcDbDimension
  2
*D62
 10
87.963
 20
80.920712
 30
0.0
 11
87.963
 21
73.920712
 31
0.0
 70
   160
  1
%%CD3
  3
NIASA
100
AcDbAlignedDimension
 13
82.255055
 23
66.920712
 33
0.0
 14
82.255055
 24
80.920712
 34
0.0
 50
270.0
100
AcDbRotatedDimension
1001
ACAD
1000
DSTYLE
1002
{
1070
    78
1070
     8
1070
   284
1070
     8
1070
   140
1040
2.5
1070
   146
1040
0.8
1070
    77
1070
     3
1070
   147
1040
1.0
1070
   287
1070
     3
1070
    42
1040
1.0
1070
    44
1040
1.0
1070
   178
1070
     7
1070
    41
1040
2.0
1002
}
  0
DIMENSION
  5
199E
100
AcDbEntity
  8
COTAS
100
AcDbDimension
  2
*D63
 10
128.7004
 20
79.870712
 30
0.0
 11
126.2004
 21
73.920712
 31
0.0
 70
    32
  1
%%Cd2
  3
NIASA
100
AcDbAlignedDimension
 13
114.980055
 23
67.970712
 33
0.0
 14
114.980055
 24
79.870712
 34
0.0
 50
270.0
100
AcDbRotatedDimension
1001
ACAD
1000
DSTYLE
1002
{
1070
    78
1070
     8
1070
   284
1070
     8
1070
   140
1040
2.5
1070
   146
1040
0.8
1070
    77
1070
     3
1070
   147
1040
1.0
1070
   287
1070
     3
1070
    42
1040
1.0
1070
    44
1040
1.0
1070
   178
1070
     7
1070
    41
1040
2.0
1002
}
  0
LINE
  5
199F
102
{ACAD_REACTORS
330
19A4
102
}
100
AcDbEntity
  8
0
100
AcDbLine
 10
114.980055
 20
79.870712
 30
0.0
 11
114.980055
 21
67.970712
 31
0.0
  0
LINE
  5
19A0
102
{ACAD_REACTORS
330
19A4
102
}
100
AcDbEntity
  8
0
100
AcDbLine
 10
110.8579
 20
79.2364
 30
0.0
 11
110.8579
 21
68.605025
 31
0.0
  0
LINE
  5
19A1
102
{ACAD_REACTORS
330
19A4
102
}
100
AcDbEntity
  8
0
100
AcDbLine
 10
110.4112
 20
79.2364
 30
0.0
 11
110.4112
 21
68.605025
 31
0.0
  0
LINE
  5
19A2
100
AcDbEntity
  8
RAYADO
100
AcDbLine
 10
108.4849
 20
72.5929
 30
0.0
 11
108.5234
 21
70.361
 31
0.0
  0
LINE
  5
19A3
100
AcDbEntity
  8
0
100
AcDbLine
 10
107.630055
 20
79.520712
 30
0.0
 11
107.630055
 21
68.320712
 31
0.0
  0
HATCH
  5
19A4
100
AcDbEntity
  8
RAYADO
100
AcDbHatch
 10
0.0
 20
0.0
 30
0.0
210
0.0
220
0.0
230
1.0
  2
_U
 70
     0
 71
     1
 91
        2
 92
        7
 72
     0
 73
     1
 93
        9
 10
109.3375006015264
 20
79.8707124083636
 10
109.2165004878143
 20
79.25000025994046
 10
109.1085574190586
 20
78.83050025994021
 10
110.4112004878145
 20
78.83050025994032
 10
110.4112004878145
 20
79.23640025994044
 10
110.8579004878142
 20
79.23640025994044
 10
110.8579004878142
 20
78.83050025994035
 10
114.9800554841553
 20
78.83050025994044
 10
114.9800554841553
 20
79.87071240836363
 97
        9
330
19AC
330
199F
330
19B1
330
19A0
330
19B2
330
19A1
330
19B3
330
19AE
330
19B4
 92
        7
 72
     0
 73
     1
 93
        9
 10
110.857900487814
 20
69.01092455678687
 10
110.857900487814
 20
68.60502455678693
 10
110.4112004878145
 20
68.60502455678679
 10
110.4112004878145
 20
69.01092455678679
 10
108.9057509296584
 20
69.01092455678693
 10
109.1010004878142
 20
68.32150025994025
 10
109.3243798048601
 20
67.97071240836348
 10
114.9800554841553
 20
67.97071240836345
 10
114.9800554841554
 20
69.01092455678713
 97
        9
330
19A7
330
199F
330
19A5
330
19A8
330
19A9
330
19AA
330
19A1
330
19AB
330
19A0
 75
     0
 76
     0
 52
45.0
 41
0.5
 77
     0
 78
     1
 53
135.0
 43
1592.7519
 44
-614.8416
 45
0.3535533905932737
 46
0.3535533905932738
 79
     0
 47
0.038481
 98
        2
 10
111.4498
 20
79.4424
 10
111.8734
 20
68.5909
  0
LINE
  5
19A5
102
{ACAD_REACTORS
330
19A4
102
}
100
AcDbEntity
  8
0
100
AcDbLine
 10
114.980055
 20
67.970712
 30
0.0
 11
107.630055
 21
67.970712
 31
0.0
  0
LINE
  5
19A6
100
AcDbEntity
  8
0
100
AcDbLine
 10
107.630055
 20
66.920712
 30
0.0
 11
107.630055
 21
68.320712
 31
0.0
  0
LINE
  5
19A7
102
{ACAD_REACTORS
330
19A4
102
}
100
AcDbEntity
  8
0
100
AcDbLine
 10
114.980055
 20
69.010925
 30
0.0
 11
110.8579
 21
69.010925
 31
0.0
  0
LINE
  5
19A8
102
{ACAD_REACTORS
330
19A4
102
}
100
AcDbEntity
  8
RAYADO
100
AcDbLine
 10
109.101
 20
68.3215
 30
0.0
 11
109.32438
 21
67.970712
 31
0.0
  0
LINE
  5
19A9
102
{ACAD_REACTORS
330
19A4
102
}
100
AcDbEntity
  8
RAYADO
100
AcDbLine
 10
108.5234
 20
70.361
 30
0.0
 11
109.101
 21
68.3215
 31
0.0
  0
LINE
  5
19AA
102
{ACAD_REACTORS
330
19A4
102
}
100
AcDbEntity
  8
0
100
AcDbLine
 10
110.4112
 20
69.010925
 30
0.0
 11
108.905751
 21
69.010925
 31
0.0
  0
LINE
  5
19AB
102
{ACAD_REACTORS
330
19A4
102
}
100
AcDbEntity
  8
0
100
AcDbLine
 10
110.8579
 20
68.605025
 30
0.0
 11
110.4112
 21
68.605025
 31
0.0
  0
LINE
  5
19AC
102
{ACAD_REACTORS
330
19A4
102
}
100
AcDbEntity
  8
0
100
AcDbLine
 10
114.980055
 20
79.870712
 30
0.0
 11
107.630055
 21
79.870712
 31
0.0
  0
LINE
  5
19AD
100
AcDbEntity
  8
0
100
AcDbLine
 10
107.630055
 20
79.520712
 30
0.0
 11
107.630055
 21
80.920712
 31
0.0
  0
LINE
  5
19AE
102
{ACAD_REACTORS
330
19A4
102
}
100
AcDbEntity
  8
RAYADO
100
AcDbLine
 10
109.2165
 20
79.25
 30
0.0
 11
108.5234
 21
76.5564
 31
0.0
  0
LINE
  5
19AF
100
AcDbEntity
  8
RAYADO
100
AcDbLine
 10
108.2924
 20
74.9787
 30
0.0
 11
108.4849
 21
72.5929
 31
0.0
  0
LINE
  5
19B0
100
AcDbEntity
  8
RAYADO
100
AcDbLine
 10
108.5234
 20
76.5564
 30
0.0
 11
108.2924
 21
74.9787
 31
0.0
  0
LINE
  5
19B1
102
{ACAD_REACTORS
330
19A4
102
}
100
AcDbEntity
  8
0
100
AcDbLine
 10
114.980055
 20
78.8305
 30
0.0
 11
110.8579
 21
78.8305
 31
0.0
  0
LINE
  5
19B2
102
{ACAD_REACTORS
330
19A4
102
}
100
AcDbEntity
  8
0
100
AcDbLine
 10
110.8579
 20
79.2364
 30
0.0
 11
110.4112
 21
79.2364
 31
0.0
  0
LINE
  5
19B3
102
{ACAD_REACTORS
330
19A4
102
}
100
AcDbEntity
  8
0
100
AcDbLine
 10
110.4112
 20
78.8305
 30
0.0
 11
109.108557
 21
78.8305
 31
0.0
  0
LINE
  5
19B4
102
{ACAD_REACTORS
330
19A4
102
}
100
AcDbEntity
  8
RAYADO
100
AcDbLine
 10
109.337501
 20
79.870712
 30
0.0
 11
109.2165
 21
79.25
 31
0.0
  0
DIMENSION
  5
19B5
100
AcDbEntity
  8
COTAS
100
AcDbDimension
  2
*D64
 10
177.080313
 20
40.556
 30
0.0
 11
167.800063
 21
43.056
 31
0.0
 70
    32
  1
a
  3
NIASA
100
AcDbAlignedDimension
 13
158.519813
 23
58.170712
 33
0.0
 14
177.080313
 24
58.170712
 34
0.0
100
AcDbRotatedDimension
1001
ACAD
1000
DSTYLE
1002
{
1070
    78
1070
     8
1070
   284
1070
     8
1070
   140
1040
2.5
1070
   146
1040
0.8
1070
    77
1070
     3
1070
   147
1040
1.0
1070
   287
1070
     3
1070
    42
1040
1.0
1070
    44
1040
1.0
1070
   178
1070
     7
1070
    41
1040
2.0
1002
}
  0
LINE
  5
19B6
100
AcDbEntity
  8
EJES
100
AcDbLine
 10
154.500063
 20
73.920712
 30
0.0
 11
181.100063
 21
73.920712
 31
0.0
  0
LINE
  5
19B7
100
AcDbEntity
  8
0
  6
CONTINUOUS
 62
     7
100
AcDbLine
 10
155.550063
 20
59.220712
 30
0.0
 11
180.050063
 21
59.220712
 31
0.0
  0
DIMENSION
  5
19B8
100
AcDbEntity
  8
COTAS
100
AcDbDimension
  2
*D65
 10
160.254854
 20
67.042576
 30
0.0
 11
155.078125
 21
51.3948
 31
0.0
 70
   163
  1
i
  3
NIASA
100
AcDbDiametricDimension
 15
159.595272
 25
65.048848
 35
0.0
 40
0.0
1001
ACAD
1000
DSTYLE
1002
{
1070
    78
1070
     8
1070
   284
1070
     8
1070
   140
1040
2.5
1070
   146
1040
0.8
1070
    77
1070
     3
1070
   147
1040
1.0
1070
   287
1070
     3
1070
    42
1040
1.0
1070
    44
1040
1.0
1070
   178
1070
     7
1070
    41
1040
2.0
1002
}
  0
LINE
  5
19B9
100
AcDbEntity
  8
EJES
100
AcDbLine
 10
158.519813
 20
64.996465
 30
0.0
 11
158.519813
 21
58.170712
 31
0.0
  0
LINE
  5
19BA
100
AcDbEntity
  8
0
  6
CONTINUOUS
 62
     7
100
AcDbLine
 10
155.550063
 20
59.220712
 30
0.0
 11
155.550063
 21
78.632732
 31
0.0
  0
DIMENSION
  5
19BB
100
AcDbEntity
  8
COTAS
100
AcDbDimension
  2
*D66
 10
149.710525
 20
81.795712
 30
0.0
 11
147.210525
 21
73.920712
 31
0.0
 70
    32
  1
a
  3
NIASA
100
AcDbAlignedDimension
 13
153.459155
 23
66.045712
 33
0.0
 14
153.882375
 24
81.795712
 34
0.0
 50
90.0
100
AcDbRotatedDimension
1001
ACAD
1000
DSTYLE
1002
{
1070
    78
1070
     8
1070
   284
1070
     8
1070
   140
1040
2.5
1070
   146
1040
0.8
1070
    77
1070
     3
1070
   147
1040
1.0
1070
   287
1070
     3
1070
    42
1040
1.0
1070
    44
1040
1.0
1070
   178
1070
     7
1070
    41
1040
2.0
1002
}
  0
LINE
  5
19BC
100
AcDbEntity
  8
EJES
100
AcDbLine
 10
162.925063
 20
66.045712
 30
0.0
 11
153.459155
 21
66.045712
 31
0.0
  0
LINE
  5
19BD
100
AcDbEntity
  8
EJES
100
AcDbLine
 10
159.925063
 20
63.045712
 30
0.0
 11
159.925063
 21
69.045712
 31
0.0
  0
CIRCLE
  5
19BE
100
AcDbEntity
  8
0
 62
     7
100
AcDbCircle
 10
159.925063
 20
66.045712
 30
0.0
 40
0.875
  0
ARC
  5
19BF
100
AcDbEntity
  8
0
 62
     1
100
AcDbCircle
 10
159.925063
 20
66.045712
 30
0.0
 40
1.05
100
AcDbArc
 50
75.0
 51
15.0
  0
LINE
  5
19C0
100
AcDbEntity
  8
EJES
100
AcDbLine
 10
162.925063
 20
81.795712
 30
0.0
 11
153.882375
 21
81.795712
 31
0.0
  0
CIRCLE
  5
19C1
100
AcDbEntity
  8
0
100
AcDbCircle
 10
159.925063
 20
81.795712
 30
0.0
 40
0.875
  0
ARC
  5
19C2
100
AcDbEntity
  8
0
 62
     1
100
AcDbCircle
 10
159.925063
 20
81.795712
 30
0.0
 40
1.05
100
AcDbArc
 50
75.0
 51
15.0
  0
LINE
  5
19C3
100
AcDbEntity
  8
EJES
100
AcDbLine
 10
177.080313
 20
64.996465
 30
0.0
 11
177.080313
 21
58.170712
 31
0.0
  0
LINE
  5
19C4
100
AcDbEntity
  8
0
  6
CONTINUOUS
 62
     7
100
AcDbLine
 10
180.050063
 20
59.220712
 30
0.0
 11
180.050063
 21
78.632732
 31
0.0
  0
DIMENSION
  5
19C5
100
AcDbEntity
  8
COTAS
100
AcDbDimension
  2
*D67
 10
187.373125
 20
50.120712
 30
0.0
 11
184.873125
 21
54.495712
 31
0.0
 70
    32
  1
G
  3
NIASA
100
AcDbAlignedDimension
 13
170.250063
 23
58.870712
 33
0.0
 14
169.550063
 24
50.120712
 34
0.0
 50
90.0
100
AcDbRotatedDimension
1001
ACAD
1000
DSTYLE
1002
{
1070
    78
1070
     8
1070
   284
1070
     8
1070
   140
1040
2.5
1070
   146
1040
0.8
1070
    77
1070
     3
1070
   147
1040
1.0
1070
   287
1070
     3
1070
    42
1040
1.0
1070
    44
1040
1.0
1070
   178
1070
     7
1070
    41
1040
2.0
1002
}
  0
LINE
  5
19C6
100
AcDbEntity
  8
0
  6
CONTINUOUS
 62
     7
100
AcDbLine
 10
165.700063
 20
50.470712
 30
0.0
 11
165.700063
 21
58.870712
 31
0.0
  0
LINE
  5
19C7
100
AcDbEntity
  8
0
  6
CONTINUOUS
 62
     7
100
AcDbLine
 10
169.900063
 20
58.870712
 30
0.0
 11
169.900063
 21
50.470712
 31
0.0
  0
LINE
  5
19C8
100
AcDbEntity
  8
0
100
AcDbLine
 10
168.500063
 20
51.870712
 30
0.0
 11
168.500063
 21
57.470712
 31
0.0
  0
LINE
  5
19C9
100
AcDbEntity
  8
0
100
AcDbLine
 10
167.100063
 20
51.870712
 30
0.0
 11
167.100063
 21
57.470712
 31
0.0
  0
ARC
  5
19CA
100
AcDbEntity
  8
0
100
AcDbCircle
 10
167.800063
 20
51.870712
 30
0.0
 40
0.7
100
AcDbArc
 50
180.0
 51
0.0
  0
LINE
  5
19CB
100
AcDbEntity
  8
0
  6
CONTINUOUS
 62
     7
100
AcDbLine
 10
166.050063
 20
50.120712
 30
0.0
 11
169.550063
 21
50.120712
 31
0.0
  0
LINE
  5
19CC
100
AcDbEntity
  8
0
  6
CONTINUOUS
 62
     7
100
AcDbLine
 10
169.900063
 20
50.470712
 30
0.0
 11
165.700063
 21
50.470712
 31
0.0
  0
LINE
  5
19CD
100
AcDbEntity
  8
0
  6
CONTINUOUS
 62
     7
100
AcDbLine
 10
166.050063
 20
50.120712
 30
0.0
 11
165.700063
 21
50.470712
 31
0.0
  0
LINE
  5
19CE
100
AcDbEntity
  8
0
  6
CONTINUOUS
 62
     7
100
AcDbLine
 10
169.900063
 20
50.470712
 30
0.0
 11
169.550063
 21
50.120712
 31
0.0
  0
ARC
  5
19CF
100
AcDbEntity
  8
0
100
AcDbCircle
 10
167.800063
 20
57.470712
 30
0.0
 40
0.7
100
AcDbArc
 50
0.0
 51
180.0
  0
LINE
  5
19D0
100
AcDbEntity
  8
0
  6
CONTINUOUS
 62
     7
100
AcDbLine
 10
165.350063
 20
58.870712
 30
0.0
 11
170.250063
 21
58.870712
 31
0.0
  0
LINE
  5
19D1
100
AcDbEntity
  8
0
100
AcDbLine
 10
165.350063
 20
59.220712
 30
0.0
 11
165.350063
 21
58.870712
 31
0.0
  0
LINE
  5
19D2
100
AcDbEntity
  8
0
100
AcDbLine
 10
170.250063
 20
59.220712
 30
0.0
 11
170.250063
 21
58.870712
 31
0.0
  0
LINE
  5
19D3
100
AcDbEntity
  8
EJES
100
AcDbLine
 10
172.675063
 20
81.795712
 30
0.0
 11
181.100063
 21
81.795712
 31
0.0
  0
LINE
  5
19D4
100
AcDbEntity
  8
EJES
100
AcDbLine
 10
172.675063
 20
66.045712
 30
0.0
 11
181.100063
 21
66.045712
 31
0.0
  0
LINE
  5
19D5
100
AcDbEntity
  8
EJES
100
AcDbLine
 10
175.675063
 20
63.045712
 30
0.0
 11
175.675063
 21
69.045712
 31
0.0
  0
CIRCLE
  5
19D6
100
AcDbEntity
  8
0
 62
     7
100
AcDbCircle
 10
175.675063
 20
66.045712
 30
0.0
 40
0.875
  0
ARC
  5
19D7
100
AcDbEntity
  8
0
 62
     1
100
AcDbCircle
 10
175.675063
 20
66.045712
 30
0.0
 40
1.05
100
AcDbArc
 50
75.0
 51
15.0
  0
CIRCLE
  5
19D8
100
AcDbEntity
  8
0
100
AcDbCircle
 10
175.675063
 20
81.795712
 30
0.0
 40
0.875
  0
ARC
  5
19D9
100
AcDbEntity
  8
0
 62
     1
100
AcDbCircle
 10
175.675063
 20
81.795712
 30
0.0
 40
1.05
100
AcDbArc
 50
75.0
 51
15.0
  0
DIMENSION
  5
19DA
100
AcDbEntity
  8
COTAS
100
AcDbDimension
  2
*D68
 10
169.900063
 20
103.4365
 30
0.0
 11
179.471491
 21
105.9365
 31
0.0
 70
    32
  1
%%Cdf8
  3
NIASA
100
AcDbAlignedDimension
 13
165.700063
 23
97.370712
 33
0.0
 14
169.900063
 24
97.370712
 34
0.0
100
AcDbRotatedDimension
1001
ACAD
1000
DSTYLE
1002
{
1070
    78
1070
     8
1070
   284
1070
     8
1070
   140
1040
2.5
1070
   146
1040
0.8
1070
    77
1070
     3
1070
   147
1040
1.0
1070
   287
1070
     3
1070
    42
1040
1.0
1070
    44
1040
1.0
1070
   178
1070
     7
1070
    41
1040
2.0
1002
}
  0
LINE
  5
19DB
100
AcDbEntity
  8
0
  6
CONTINUOUS
 62
     7
100
AcDbLine
 10
155.550063
 20
88.620712
 30
0.0
 11
180.050063
 21
88.620712
 31
0.0
  0
DIMENSION
  5
19DC
100
AcDbEntity
  8
COTAS
100
AcDbDimension
  2
*D69
 10
187.373125
 20
97.720712
 30
0.0
 11
184.873125
 21
93.345712
 31
0.0
 70
    32
  1
G
  3
NIASA
100
AcDbAlignedDimension
 13
170.250063
 23
88.970712
 33
0.0
 14
169.550063
 24
97.720712
 34
0.0
 50
90.0
100
AcDbRotatedDimension
1001
ACAD
1000
DSTYLE
1002
{
1070
    78
1070
     8
1070
   284
1070
     8
1070
   140
1040
2.5
1070
   146
1040
0.8
1070
    77
1070
     3
1070
   147
1040
1.0
1070
   287
1070
     3
1070
    42
1040
1.0
1070
    44
1040
1.0
1070
   178
1070
     7
1070
    41
1040
2.0
1002
}
  0
LINE
  5
19DD
100
AcDbEntity
  8
0
100
AcDbLine
 10
167.100063
 20
95.970712
 30
0.0
 11
167.100063
 21
90.370712
 31
0.0
  0
LINE
  5
19DE
100
AcDbEntity
  8
0
100
AcDbLine
 10
168.500063
 20
95.970712
 30
0.0
 11
168.500063
 21
90.370712
 31
0.0
  0
LINE
  5
19DF
100
AcDbEntity
  8
0
  6
CONTINUOUS
 62
     7
100
AcDbLine
 10
165.700063
 20
88.970712
 30
0.0
 11
165.700063
 21
97.370712
 31
0.0
  0
LINE
  5
19E0
100
AcDbEntity
  8
0
  6
CONTINUOUS
 62
     7
100
AcDbLine
 10
169.900063
 20
97.370712
 30
0.0
 11
169.900063
 21
88.970712
 31
0.0
  0
LINE
  5
19E1
100
AcDbEntity
  8
0
100
AcDbLine
 10
165.350063
 20
88.620712
 30
0.0
 11
165.350063
 21
88.970712
 31
0.0
  0
LINE
  5
19E2
100
AcDbEntity
  8
0
100
AcDbLine
 10
170.250063
 20
88.620712
 30
0.0
 11
170.250063
 21
88.970712
 31
0.0
  0
LINE
  5
19E3
100
AcDbEntity
  8
0
  6
CONTINUOUS
 62
     7
100
AcDbLine
 10
165.350063
 20
88.970712
 30
0.0
 11
170.250063
 21
88.970712
 31
0.0
  0
ARC
  5
19E4
100
AcDbEntity
  8
0
100
AcDbCircle
 10
167.800063
 20
90.370712
 30
0.0
 40
0.7
100
AcDbArc
 50
180.0
 51
0.0
  0
ARC
  5
19E5
100
AcDbEntity
  8
0
100
AcDbCircle
 10
167.800063
 20
95.970712
 30
0.0
 40
0.7
100
AcDbArc
 50
0.0
 51
180.0
  0
LINE
  5
19E6
100
AcDbEntity
  8
0
  6
CONTINUOUS
 62
     7
100
AcDbLine
 10
169.550063
 20
97.720712
 30
0.0
 11
166.050063
 21
97.720712
 31
0.0
  0
LINE
  5
19E7
100
AcDbEntity
  8
0
  6
CONTINUOUS
 62
     7
100
AcDbLine
 10
165.700063
 20
97.370712
 30
0.0
 11
169.900063
 21
97.370712
 31
0.0
  0
LINE
  5
19E8
100
AcDbEntity
  8
0
  6
CONTINUOUS
 62
     7
100
AcDbLine
 10
165.700063
 20
97.370712
 30
0.0
 11
166.050063
 21
97.720712
 31
0.0
  0
LINE
  5
19E9
100
AcDbEntity
  8
0
  6
CONTINUOUS
 62
     7
100
AcDbLine
 10
169.550063
 20
97.720712
 30
0.0
 11
169.900063
 21
97.370712
 31
0.0
  0
ENDSEC
  0
SECTION
  2
OBJECTS
  0
DICTIONARY
  5
B72
100
AcDbDictionary
  3
ACAD_GROUP
350
B73
  3
ACAD_MLINESTYLE
350
B80
  3
ACDBVARIABLEDICTIONARY
350
BB5
  0
DICTIONARY
  5
B73
102
{ACAD_REACTORS
330
B72
102
}
100
AcDbDictionary
  0
DICTIONARY
  5
B80
102
{ACAD_REACTORS
330
B72
102
}
100
AcDbDictionary
  3
STANDARD
350
B81
  0
DICTIONARY
  5
BB5
102
{ACAD_REACTORS
330
B72
102
}
100
AcDbDictionary
  3
DIMADEC
350
BB6
  3
SORTENTS
350
165C
  0
MLINESTYLE
  5
B81
102
{ACAD_REACTORS
330
B80
102
}
100
AcDbMlineStyle
  2
STANDARD
 70
     0
  3

 62
   256
 51
90.0
 52
90.0
 71
     2
 49
0.5
 62
   256
  6
BYLAYER
 49
-0.5
 62
   256
  6
BYLAYER
  0
DICTIONARYVAR
  5
BB6
102
{ACAD_REACTORS
330
BB5
102
}
100
DictionaryVariables
280
     0
  1
0
  0
DICTIONARYVAR
  5
165C
102
{ACAD_REACTORS
330
BB5
102
}
100
DictionaryVariables
280
     0
  1
96
  0
ENDSEC
  0
EOF
